<?xml version="1.0" standalone="no"?>
<!DOCTYPE svg PUBLIC "-//W3C//DTD SVG 1.1//EN" "http://www.w3.org/Graphics/SVG/1.1/DTD/svg11.dtd" >
<svg xmlns="http://www.w3.org/2000/svg" xmlns:xlink="http://www.w3.org/1999/xlink" version="1.1">
<metadata></metadata>
<defs>
<font id="capsuularegular" horiz-adv-x="1105" >
<font-face units-per-em="2048" ascent="1638" descent="-410" />
<missing-glyph horiz-adv-x="409" />
<glyph horiz-adv-x="0" />
<glyph unicode="&#xd;" horiz-adv-x="409" />
<glyph unicode=" "  horiz-adv-x="409" />
<glyph unicode="&#x09;" horiz-adv-x="409" />
<glyph unicode="&#xa0;" horiz-adv-x="409" />
<glyph unicode="!" horiz-adv-x="348" d="M102 72q0 29 21.5 50t50.5 21t50.5 -21.5t21.5 -49.5q0 -29 -21.5 -50.5t-50.5 -21.5t-50.5 21.5t-21.5 50.5zM133 1434h82l-20 -1127h-41z" />
<glyph unicode="&#x22;" horiz-adv-x="454" d="M102 1544h82l-20 -254h-41zM270 1544h82l-20 -254h-41z" />
<glyph unicode="#" horiz-adv-x="1003" d="M143 553v82h170l39 164h-209v82h228l55 225h84l-55 -225h163l56 225h84l-56 -225h158v-82h-176l-39 -164h215v-82h-235l-54 -225h-84l54 225h-164l-53 -225h-84l53 225h-150zM397 635h164l39 164h-164z" />
<glyph unicode="$" horiz-adv-x="1044" d="M102 410h82q0 -66 22.5 -123.5t62.5 -102.5t94.5 -73.5t117.5 -36.5v671q-63 16 -119.5 47t-97.5 72t-65.5 94.5t-24.5 116.5q0 80 27.5 147.5t75 117t111 77t134.5 27.5q104 0 193.5 -48t146.5 -128l-67 -45q-41 55 -100.5 91t-131.5 46v-543q82 -16 150.5 -52t120 -87 t80 -116.5t28.5 -141.5q0 -92 -32.5 -171t-90 -136.5t-134.5 -90t-163 -32.5t-162.5 32.5t-134 90t-90.5 134.5t-33 163zM256 1075q0 -90 65.5 -150.5t159.5 -88.5v522q-98 -14 -161.5 -90t-63.5 -193zM563 74q61 6 115.5 34.5t94.5 74.5t63.5 105.5t23.5 131.5 q0 59 -23.5 107t-63.5 87t-94 67t-116 46v-653z" />
<glyph unicode="%" horiz-adv-x="968" d="M61 1229q0 45 16.5 84t46.5 67.5t68.5 46t83.5 17.5t84 -17.5t68 -46t46.5 -67.5t17.5 -84t-17.5 -84t-46.5 -68.5t-67.5 -46t-84.5 -16.5q-45 0 -83.5 16.5t-68.5 46t-46.5 68.5t-16.5 84zM143 1229q0 -55 39 -94t94 -39t94.5 39t39.5 94t-39 94t-95 39q-55 0 -94 -39 t-39 -94zM270 0l344 1434h84l-344 -1434h-84zM477 205q0 45 16.5 84t46 67.5t68.5 46t84 17.5t84 -17.5t67.5 -46t46 -67.5t17.5 -84t-17.5 -84t-46 -68.5t-67.5 -46t-84 -16.5t-84 16.5t-68.5 46t-46 68.5t-16.5 84zM559 205q0 -55 39 -94t94 -39t94 39t39 94t-38.5 94 t-94.5 39q-55 0 -94 -39t-39 -94z" />
<glyph unicode="&#x26;" horiz-adv-x="1261" d="M102 369q0 74 22.5 132t61.5 108t90.5 94.5t108.5 91.5q23 16 45.5 34.5t46.5 40.5q-59 0 -110.5 24t-89 61.5t-60 90t-22.5 111.5t22.5 111.5t61 91.5t91 61.5t111.5 22.5t111.5 -22.5t91.5 -61.5t61.5 -91t22.5 -112q0 -53 -18.5 -100t-49.5 -84q-70 -78 -137 -136.5 t-129 -107.5q-53 -43 -98 -82t-79 -80t-53.5 -89t-19.5 -109t23.5 -115.5t63.5 -94.5t94.5 -63.5t115.5 -23.5t115.5 23.5t94.5 63.5t63.5 94t23.5 116q0 33 -5 63.5t-19 56.5q-35 63 -71 125t-69 127l66 56q111 -225 250 -425t311 -372h-113q-145 152 -270 330 q-8 -72 -40 -133.5t-83 -107.5t-115.5 -72.5t-138.5 -26.5q-78 0 -147.5 29.5t-120.5 81t-81 121t-30 147.5zM276 1157q0 -86 59.5 -145.5t145.5 -59.5t145.5 59.5t59.5 145.5t-59.5 145.5t-145.5 59.5t-145.5 -59.5t-59.5 -145.5z" />
<glyph unicode="'" horiz-adv-x="286" d="M102 1544h82l-20 -254h-41z" />
<glyph unicode="(" horiz-adv-x="534" d="M143 717q0 119 17.5 237.5t52.5 223t86 191.5t121 147l53 -62q-61 -53 -107.5 -132t-78 -176t-47 -207t-15.5 -222q0 -113 15.5 -222.5t47 -207t78 -177t107.5 -130.5l-53 -62q-70 57 -121 144.5t-86 192.5t-52.5 223t-17.5 239z" />
<glyph unicode=")" horiz-adv-x="534" d="M61 -20q61 51 107.5 130.5t78.5 177t47 207t15 222.5t-15 222.5t-47 206.5t-78 176t-108 132l54 62q70 -59 121 -146.5t85.5 -192t52 -223t17.5 -237.5q0 -121 -17.5 -239t-52 -223t-86 -192.5t-120.5 -144.5z" />
<glyph unicode="*" horiz-adv-x="610" d="M104.5 1293.5q-4.5 17.5 2 36t18.5 30.5t29 4l131 -72l-27 148q-4 16 12.5 24.5t35 8.5t33.5 -8.5t13 -24.5l-28 -148l133 70q14 8 27.5 -4t18.5 -29.5t2 -34t-18 -18.5l-151 -21l108 -104q12 -12 5 -27.5t-22 -26t-31.5 -13.5t-24.5 12l-66 135l-65 -133 q-6 -16 -23.5 -13.5t-33 13t-23.5 26t4 27.5l108 104l-147 19q-16 2 -20.5 19.5z" />
<glyph unicode="+" horiz-adv-x="1024" d="M184 614v82h287v287h82v-287h287v-82h-287v-286h-82v286h-287z" />
<glyph unicode="," horiz-adv-x="348" d="M102 -164q31 61 38.5 107.5t-21.5 83.5q-12 16 -14.5 36.5t6 38t25 29.5t38.5 12q29 0 50.5 -21.5t21.5 -49.5q0 -43 -11.5 -80t-26.5 -65.5t-32.5 -52.5t-32.5 -38h-41z" />
<glyph unicode="-" horiz-adv-x="798" d="M143 532v82h512v-82h-512z" />
<glyph unicode="." horiz-adv-x="348" d="M102 72q0 29 21.5 50t50.5 21t50.5 -21.5t21.5 -49.5q0 -29 -21.5 -50.5t-50.5 -21.5t-50.5 21.5t-21.5 50.5z" />
<glyph unicode="/" horiz-adv-x="550" d="M61 0l345 1434h83l-344 -1434h-84z" />
<glyph unicode="0" horiz-adv-x="1044" d="M102 420v594q0 92 33 171t90.5 136t134 90t162.5 33t163 -33t134.5 -90t90 -136t32.5 -171v-594q0 -92 -32.5 -171t-90 -136.5t-134.5 -90t-163 -32.5t-162.5 32.5t-134 90t-90.5 136.5t-33 171zM184 420q0 -76 27 -140.5t73 -110.5t107.5 -71.5t130.5 -25.5 q70 0 131.5 25.5t107.5 71.5t72.5 110.5t26.5 140.5v594q0 76 -26.5 140.5t-72.5 110.5t-107.5 71.5t-131.5 25.5t-131 -25.5t-107 -71.5t-73 -110.5t-27 -140.5v-594z" />
<glyph unicode="1" horiz-adv-x="491" d="M143 1352v82h205v-1434h-82v1352h-123z" />
<glyph unicode="2" horiz-adv-x="917" d="M102 0q2 135 37 239.5t89.5 188.5t121 150.5t133.5 128.5q49 45 94.5 92t80 95t55 98t20.5 104q0 53 -17.5 101t-53 85t-89 58.5t-122.5 21.5q-86 0 -156 -38t-117 -101l-67 45q57 80 146 128t194 48q90 0 158.5 -29t114.5 -77t68.5 -110t22.5 -132q0 -68 -22.5 -128.5 t-61.5 -115.5t-88 -106.5t-104 -100.5h2q-57 -53 -114.5 -109.5t-107 -124t-84 -148.5t-47.5 -181h625v-82h-711z" />
<glyph unicode="3" horiz-adv-x="944" d="M82 162l68 47q47 -63 116.5 -100t155.5 -37q70 0 131 25.5t107.5 71.5t73 110.5t26.5 140.5q0 63 -26.5 120.5t-73 101.5t-107.5 69.5t-131 25.5v82h10q53 0 100.5 21.5t82 57.5t54 82t19.5 95q0 63 -20.5 116.5t-57.5 91.5t-85 58.5t-103 20.5q-86 0 -155.5 -38 t-116.5 -101l-68 45q57 80 146 128t194 48q72 0 135.5 -27.5t110.5 -77t74.5 -117t27.5 -147.5q0 -92 -49 -169t-180 -124q162 -49 231.5 -146t69.5 -216q0 -92 -33 -171t-90 -136.5t-134 -90t-163 -32.5q-104 0 -193.5 47t-146.5 125z" />
<glyph unicode="4" horiz-adv-x="901" d="M102 451v81l240 902h86l-242 -902h346v328h82v-328h205v-81h-205v-451h-82v451h-430z" />
<glyph unicode="5" horiz-adv-x="944" d="M82 162l68 47q47 -63 116.5 -100t155.5 -37q70 0 131 25.5t107.5 71.5t73 110.5t26.5 140.5v121q0 76 -26.5 140t-73 110.5t-107.5 72t-131 25.5q-49 0 -93 -13.5t-83 -35.5h-82v594h614v-82h-532v-420q80 39 176 39q86 0 163 -33t134 -90t90 -136t33 -171v-121 q0 -92 -33 -171t-90 -136.5t-134 -90t-163 -32.5q-104 0 -193.5 47t-146.5 125z" />
<glyph unicode="6" horiz-adv-x="1044" d="M102 420v121q0 160 22.5 315.5t89.5 281.5t187.5 209t315.5 97v-82q-127 0 -216 -42t-149.5 -113.5t-95.5 -170t-51 -211.5q59 66 139 106t178 40q86 0 163 -33t134.5 -90t90 -136t32.5 -171v-121q0 -92 -32.5 -171t-90 -136.5t-134.5 -90t-163 -32.5t-162.5 32.5 t-134 90t-90.5 136.5t-33 171zM184 420q0 -76 27 -140.5t73 -110.5t107.5 -71.5t130.5 -25.5q70 0 131.5 25.5t107.5 71.5t72.5 110.5t26.5 140.5v121q0 76 -26.5 140t-72.5 110.5t-107.5 72t-131.5 25.5q-68 0 -127 -23.5t-105 -66.5t-74 -102.5t-32 -131.5v-145z" />
<glyph unicode="7" horiz-adv-x="897" d="M102 1352v82h713q-6 -119 -29.5 -215.5t-59.5 -177t-81 -151.5t-92 -140q-49 -74 -97 -151t-86 -168t-61.5 -201.5t-21.5 -229.5h-82q-2 129 22.5 247t64.5 214t90 176t101 158q39 59 78 119.5t72 127t56.5 143.5t35.5 167h-623z" />
<glyph unicode="8" horiz-adv-x="1044" d="M102 420q0 119 69 216t179 146q-78 47 -127 124t-49 169q0 80 27.5 147.5t75 117t111 77t134.5 27.5q72 0 135.5 -27.5t110.5 -77t74.5 -117t27.5 -147.5q0 -92 -49 -169t-129 -124q111 -49 180.5 -146t69.5 -216q0 -92 -32.5 -171t-90 -136.5t-134.5 -90t-163 -32.5 t-162.5 32.5t-134 90t-90.5 136.5t-33 171zM184 420q0 -76 27 -140.5t73 -110.5t107.5 -71.5t130.5 -25.5q70 0 131.5 25.5t107.5 71.5t72.5 110.5t26.5 140.5q0 61 -25.5 117.5t-70.5 99.5t-106.5 70.5t-135.5 29.5q-70 0 -131 -25.5t-107 -69.5t-73 -101.5t-27 -120.5z M256 1075q0 -51 20.5 -97t57.5 -82t85 -56.5t103 -20.5q57 0 105.5 21.5t84.5 57.5t56 82t20 95q0 63 -20 116.5t-57 91.5t-85 58.5t-104 20.5q-55 0 -103 -20.5t-85 -58.5t-57.5 -91t-20.5 -117z" />
<glyph unicode="9" horiz-adv-x="1044" d="M102 934v80q0 92 33 171t90.5 136t134 90t162.5 33t163 -33t134.5 -90t90 -136t32.5 -171v-76q0 -199 -29.5 -372t-100.5 -301t-189.5 -201.5t-294.5 -73.5v82q121 0 210 42t151.5 118.5t99 183t53.5 235.5l-2 -2q-59 -66 -139 -105.5t-179 -39.5q-86 0 -162.5 32.5 t-134 90t-90.5 136.5t-33 171zM184 934q0 -76 27 -140.5t73 -110.5t107 -71.5t131 -25.5q68 0 127.5 23.5t105.5 66.5t73.5 102.5t31.5 130.5v105q0 76 -26.5 140.5t-72.5 110.5t-107.5 71.5t-131.5 25.5t-131 -25.5t-107 -71.5t-73 -110.5t-27 -140.5v-80z" />
<glyph unicode=":" horiz-adv-x="348" d="M102 72q0 29 21.5 50t50.5 21t50.5 -21.5t21.5 -49.5q0 -29 -21.5 -50.5t-50.5 -21.5t-50.5 21.5t-21.5 50.5zM102 707q0 29 21.5 50t50.5 21t50.5 -21.5t21.5 -49.5q0 -29 -21.5 -50.5t-50.5 -21.5t-50.5 21.5t-21.5 50.5z" />
<glyph unicode=";" horiz-adv-x="348" d="M102 -164q31 61 38.5 107.5t-21.5 83.5q-12 16 -14.5 36.5t6 38t25 29.5t38.5 12q29 0 50.5 -21.5t21.5 -49.5q0 -43 -11.5 -80t-26.5 -65.5t-32.5 -52.5t-32.5 -38h-41zM102 707q0 29 21.5 50t50.5 21t50.5 -21.5t21.5 -49.5q0 -29 -21.5 -50.5t-50.5 -21.5t-50.5 21.5 t-21.5 50.5z" />
<glyph unicode="&#x3c;" horiz-adv-x="815" d="M143 608v94l529 308v-95l-449 -260l449 -260v-94z" />
<glyph unicode="=" horiz-adv-x="1024" d="M184 492v81h656v-81h-656zM184 737v82h656v-82h-656z" />
<glyph unicode="&#x3e;" horiz-adv-x="815" d="M143 301v94l449 260l-449 260v95l529 -308v-94z" />
<glyph unicode="?" horiz-adv-x="770" d="M20 1268q57 80 146.5 128t193.5 48q72 0 135.5 -27.5t110.5 -77t75 -117t28 -147.5q0 -61 -13.5 -110.5t-35 -91.5t-49 -80.5t-56.5 -81.5q-29 -41 -59.5 -84t-56 -92.5t-42 -104.5t-16.5 -123h-41q0 150 43 254.5t106 194.5q27 37 51.5 71.5t44 71.5t31 80t11.5 96 q0 63 -20.5 116.5t-57.5 91.5t-85 58.5t-104 20.5q-86 0 -155.5 -38t-116.5 -101zM289 72q0 29 21.5 50t49.5 21q29 0 50.5 -21.5t21.5 -49.5q0 -29 -21.5 -50.5t-50.5 -21.5t-50 21.5t-21 50.5z" />
<glyph unicode="@" horiz-adv-x="1017" d="M143 317v574q0 152 86 234.5t222 82.5h81q135 0 221.5 -83t86.5 -234v-492q0 -57 -20.5 -107t-56.5 -88t-84 -59.5t-106 -21.5q-57 0 -105 21.5t-84 59.5t-56.5 88t-20.5 107v213q2 53 24.5 102.5t58.5 86.5t83 58.5t100 21.5t103 -19v-84q-51 20 -103 21 q-76 0 -128 -52.5t-56 -136.5v-211q0 -88 53.5 -141t130.5 -53q78 0 131.5 53t53.5 141v492q0 113 -63.5 174t-162.5 61h-81q-98 0 -162 -61t-64 -174v-574q0 -82 28 -145t75 -110.5t110.5 -75t134.5 -27.5q72 0 134.5 27.5t109.5 74.5l57 -57q-59 -59 -134.5 -93 t-166.5 -34q-88 0 -166.5 36t-137 96.5t-92.5 140t-34 167.5z" />
<glyph unicode="A" horiz-adv-x="925" d="M51 0l350 1434h123l350 -1434h-81l-131 532h-398l-131 -532h-82zM285 614h356l-178 732z" />
<glyph unicode="B" horiz-adv-x="1064" d="M143 0v1434h420q70 0 131.5 -27t107.5 -73t72.5 -107.5t26.5 -141.5q0 -84 -46 -160.5t-183 -121.5q172 -49 241.5 -151.5t69.5 -221.5q0 -96 -32.5 -173t-90 -134t-134.5 -90t-163 -33h-420zM225 82h338q70 0 131.5 26.5t107.5 72.5t72.5 107.5t26.5 141.5 q0 59 -26.5 120.5t-72.5 108t-107.5 73t-131.5 26.5h-256v82h256q53 0 99.5 20.5t81 55t55 80.5t20.5 89q0 63 -20.5 109.5t-55 81.5t-81 55.5t-99.5 20.5h-338v-1270z" />
<glyph unicode="C" horiz-adv-x="976" d="M133 420v594q0 96 33 173t90 134t134 90t163 33t163 -33t117.5 -75t61.5 -70l-70 -43q-16 20 -48 53t-93 59.5t-131 26.5t-131.5 -26.5t-107.5 -72.5t-72.5 -107.5t-26.5 -141.5v-594q0 -80 26.5 -141.5t72.5 -107.5t107.5 -72.5t131.5 -26.5t131 26.5t93 59t48 53.5 l70 -43q-20 -29 -61 -71t-118 -74.5t-163 -32.5t-163 32.5t-134 90t-90 134.5t-33 173z" />
<glyph unicode="D" horiz-adv-x="1116" d="M143 0v1434h420q86 0 163 -33t134.5 -90.5t90 -134t32.5 -172.5v-574q0 -96 -32.5 -173t-90 -134t-134.5 -90t-163 -33h-420zM225 82h338q70 0 131.5 26.5t107.5 72.5t72.5 107.5t26.5 141.5v574q0 80 -26.5 141t-72.5 107t-107.5 73t-131.5 27h-338v-1270z" />
<glyph unicode="E" horiz-adv-x="921" d="M143 0v1434h697v-82h-615v-512h410v-82h-410v-676h615v-82h-697z" />
<glyph unicode="F" horiz-adv-x="880" d="M143 0v1434h697v-82h-615v-512h410v-82h-410v-758h-82z" />
<glyph unicode="G" d="M133 420v594q0 92 33 171t90 136t134 90t163 33q104 0 191 -48t151 -130l-70 -43q-72 78 -137 108.5t-135 30.5t-131.5 -25.5t-107.5 -71.5t-72.5 -110.5t-26.5 -140.5v-594q0 -76 26.5 -140.5t72.5 -110.5t107.5 -71.5t131.5 -25.5t131 25.5t107.5 71.5t73 110.5 t26.5 140.5v338h-348v82h430v-420q0 -92 -33 -171t-90 -136.5t-134 -90t-163 -32.5t-163 32.5t-134 90t-90 136.5t-33 171z" />
<glyph unicode="H" horiz-adv-x="1126" d="M143 0v1434h82v-594h676v594h82v-1434h-82v758h-676v-758h-82z" />
<glyph unicode="I" horiz-adv-x="368" d="M143 0v1434h82v-1434h-82z" />
<glyph unicode="J" horiz-adv-x="368" d="M-195 -225q70 0 131.5 25.5t107.5 71.5t72.5 110.5t26.5 140.5v1311h82v-1311q0 -92 -32.5 -171t-90 -136.5t-134.5 -90t-163 -32.5v82z" />
<glyph unicode="K" horiz-adv-x="995" d="M143 0v1434h82v-1434h-82zM307 758v82l475 594h109l-510 -639l573 -795h-100z" />
<glyph unicode="L" horiz-adv-x="880" d="M143 0v1434h82v-1352h615v-82h-697z" />
<glyph unicode="M" horiz-adv-x="1310" d="M143 0v1434h101l411 -699l412 699h100v-1434h-82v1305l-395 -670h-69l-396 670v-1305h-82z" />
<glyph unicode="N" horiz-adv-x="1064" d="M143 0v1434h115l582 -1297v1297h82v-1434h-111l-586 1296v-1296h-82z" />
<glyph unicode="O" d="M133 420v594q0 92 33 171t90 136t134 90t163 33t163 -33t134 -90t90 -136t33 -171v-594q0 -92 -33 -171t-90 -136.5t-134 -90t-163 -32.5t-163 32.5t-134 90t-90 136.5t-33 171zM215 420q0 -76 26.5 -140.5t72.5 -110.5t107.5 -71.5t131.5 -25.5t131 25.5t107.5 71.5 t73 110.5t26.5 140.5v594q0 76 -26.5 140.5t-73 110.5t-107.5 71.5t-131 25.5t-131.5 -25.5t-107.5 -71.5t-72.5 -110.5t-26.5 -140.5v-594z" />
<glyph unicode="P" horiz-adv-x="1003" d="M143 0v1434h461q70 0 131.5 -27t107.5 -73t72.5 -107.5t26.5 -141.5q0 -59 -26.5 -120.5t-72.5 -107.5t-107.5 -72.5t-131.5 -26.5h-297v82h297q53 0 99.5 20.5t81 55t55 80.5t20.5 89q0 63 -20.5 109.5t-55 81.5t-81 55.5t-99.5 20.5h-379v-1352h-82z" />
<glyph unicode="Q" d="M133 420v594q0 92 33 171t90 136t134 90t163 33t163 -33t134 -90t90 -136t33 -171v-594q0 -92 -33 -171t-90 -136.5t-134 -90t-163 -32.5t-163 32.5t-134 90t-90 136.5t-33 171zM215 420q0 -76 26.5 -140.5t72.5 -110.5t107.5 -71.5t131.5 -25.5t131 25.5t107.5 71.5 t73 110.5t26.5 140.5v594q0 76 -26.5 140.5t-73 110.5t-107.5 71.5t-131 25.5t-131.5 -25.5t-107.5 -71.5t-72.5 -110.5t-26.5 -140.5v-594zM379 -123l45 -70q60 37 109 37h5q50 -2 107 -37q78 -50 155.5 -50t155.5 50l-45 70q-61 -36 -116 -36t-105 36q-79 49 -153 49h-5 q-77 -2 -153 -49z" />
<glyph unicode="R" horiz-adv-x="1015" d="M143 0v1434h461q70 0 131.5 -27t107.5 -73t72.5 -107.5t26.5 -141.5q0 -59 -26.5 -120.5t-72.5 -107.5t-107.5 -72.5t-131.5 -26.5h-196l546 -758h-100l-547 758v82h297q53 0 99.5 20.5t81 55t55 80.5t20.5 89q0 63 -20.5 109.5t-55 81.5t-81 55.5t-99.5 20.5h-379v-1352 h-82z" />
<glyph unicode="S" horiz-adv-x="1003" d="M82 410h82q0 -70 26.5 -131.5t72.5 -107.5t107.5 -72.5t131.5 -26.5t131 25.5t107 71.5t73 110.5t27 140.5q0 63 -27 115.5t-73 92.5t-107.5 67.5t-130.5 41.5q-72 14 -134.5 43t-110.5 72t-75.5 99.5t-27.5 123.5q0 80 27.5 147.5t74.5 117t110.5 77t135.5 27.5 q104 0 193 -48t147 -128l-68 -45q-47 63 -116.5 101t-155.5 38q-55 0 -103.5 -20.5t-85.5 -58.5t-57 -91t-20 -117q0 -51 23.5 -93t62 -75t90 -54.5t106.5 -31.5q86 -14 160 -49t128 -87t85 -118.5t31 -146.5q0 -92 -33 -171t-90.5 -136.5t-134 -90t-162.5 -32.5t-163 32.5 t-134.5 90t-90 134.5t-32.5 163z" />
<glyph unicode="T" horiz-adv-x="921" d="M41 1352v82h840v-82h-379v-1352h-82v1352h-379z" />
<glyph unicode="U" d="M133 420v1014h82v-1014q0 -76 26.5 -140.5t72.5 -110.5t107.5 -71.5t131.5 -25.5t131 25.5t107.5 71.5t73 110.5t26.5 140.5v1014h82v-1014q0 -92 -33 -171t-90 -136.5t-134 -90t-163 -32.5t-163 32.5t-134 90t-90 136.5t-33 171z" />
<glyph unicode="V" horiz-adv-x="925" d="M51 1434h82l330 -1346l330 1346h81l-350 -1434h-123z" />
<glyph unicode="W" horiz-adv-x="1384" d="M51 1434h84l244 -1334l246 1334h133l243 -1332l246 1332h86l-266 -1434h-133l-242 1331l-246 -1331h-133z" />
<glyph unicode="X" horiz-adv-x="839" d="M51 0l324 737l-324 697h94l277 -594l276 594h90l-321 -697l321 -737h-90l-276 635l-277 -635h-94z" />
<glyph unicode="Y" horiz-adv-x="839" d="M51 1434h94l277 -615l276 615h90l-325 -729v-705h-82v705z" />
<glyph unicode="Z" horiz-adv-x="901" d="M82 0l610 1352h-549v82h676l-606 -1352h586v-82h-717z" />
<glyph unicode="[" horiz-adv-x="471" d="M143 -82v1598h226v-82h-144v-1434h144v-82h-226z" />
<glyph unicode="\" horiz-adv-x="548" d="M61 1434h84l342 -1434h-81z" />
<glyph unicode="]" horiz-adv-x="471" d="M102 0h144v1434h-144v82h226v-1598h-226v82z" />
<glyph unicode="^" horiz-adv-x="688" d="M61 926l238 528h90l238 -528h-86q-49 109 -99.5 215t-97.5 215l-194 -430h-89z" />
<glyph unicode="_" horiz-adv-x="1310" d="M143 -82h1024v-82h-1024v82z" />
<glyph unicode="`" horiz-adv-x="542" d="M184 1454h95l79 -246h-65z" />
<glyph unicode="a" horiz-adv-x="823" d="M86 307q0 59 24.5 111.5t66.5 91.5t97.5 61.5t118.5 22.5q78 0 144 -35v-90q-29 20 -66 31.5t-78 11.5q-98 0 -161.5 -56.5t-63.5 -148.5q0 -111 63.5 -173t161.5 -62q104 0 164.5 62.5t60.5 172.5v410q0 113 -60 174t-165 61q-117 0 -188 -90l-66 39q37 61 107.5 97 t146.5 36q66 0 122 -22.5t97 -64.5t64.5 -100.5t23.5 -129.5v-410q0 -51 1 -92t8.5 -70.5t25 -46t47.5 -16.5v-82q-66 0 -98.5 29.5t-46.5 79.5q-41 -53 -104.5 -86t-139.5 -33q-63 0 -118.5 23.5t-97.5 65.5t-66.5 100.5t-24.5 127.5z" />
<glyph unicode="b" horiz-adv-x="829" d="M123 307v1127h82v-1127q0 -111 63.5 -173t161.5 -62q104 0 164.5 62.5t60.5 172.5v400q0 113 -63.5 174t-161.5 61q-41 0 -78 -11t-65 -32v90q66 35 143 35q63 0 118.5 -22.5t97.5 -64.5t66.5 -100.5t24.5 -129.5v-400q0 -70 -23.5 -128t-64.5 -100t-97 -65.5t-122 -23.5 q-63 0 -118.5 23.5t-97.5 65.5t-66.5 100.5t-24.5 127.5z" />
<glyph unicode="c" horiz-adv-x="737" d="M92 307v410q0 72 23.5 130t64.5 100t97.5 64.5t121.5 22.5q74 0 141.5 -33.5t110.5 -99.5l-65 -39q-12 23 -33 40.5t-46.5 28.5t-54 16t-53.5 5q-104 0 -164.5 -61.5t-60.5 -173.5v-410q0 -111 60.5 -173t164.5 -62q53 0 104.5 21.5t80.5 68.5l65 -43q-41 -57 -107.5 -93 t-142.5 -36q-66 0 -122 23.5t-97 65.5t-64.5 100.5t-23.5 127.5z" />
<glyph unicode="d" horiz-adv-x="870" d="M92 307v400q0 72 24.5 130t66.5 100t97.5 64.5t118.5 22.5q78 0 144 -35v-90q-29 20 -66 31.5t-78 11.5q-98 0 -161.5 -61.5t-63.5 -173.5v-400q0 -111 60.5 -173t164.5 -62q92 0 157 59t69 166v1137h82v-1117q0 -53 1 -96t8 -73.5t23.5 -48t48.5 -17.5v-82 q-66 0 -98.5 29.5t-46.5 81.5q-43 -55 -106.5 -88t-137.5 -33q-66 0 -122 23.5t-97 65.5t-64.5 100.5t-23.5 127.5z" />
<glyph unicode="e" horiz-adv-x="792" d="M92 307v410q0 70 23.5 128t64.5 100t97.5 65.5t121.5 23.5q63 0 118.5 -23.5t97.5 -65.5t67 -100.5t25 -127.5q0 -59 -25 -111.5t-67 -91.5t-97 -61.5t-119 -22.5h-143v82h143q98 0 162 61.5t64 153.5q0 111 -63.5 168t-162.5 57q-104 0 -164.5 -57t-60.5 -168v-420 q0 -113 60.5 -174t164.5 -61q115 0 187 90l65 -43q-41 -59 -108.5 -94t-143.5 -35q-66 0 -122 22.5t-97 63.5t-64.5 100.5t-23.5 130.5z" />
<glyph unicode="f" horiz-adv-x="471" d="M61 942v82h82v102q0 84 32 145.5t84 102.5t113 58q46 12 89 12q16 0 31 -2v-82q-19 3 -38 3q-27 0 -54 -6q-46 -11 -87 -42t-64.5 -77t-23.5 -112v-102h185v-82h-185v-942h-82v942h-82z" />
<glyph unicode="g" horiz-adv-x="849" d="M102 -225h82q0 -98 63.5 -162t162.5 -64q104 0 164.5 62.5t60.5 173.5q0 92 -60.5 153.5t-164.5 61.5v82q66 0 122 -24.5t97 -65.5t64.5 -94.5t23.5 -112.5q0 -70 -23.5 -128t-64.5 -100t-97.5 -65.5t-121.5 -23.5q-63 0 -118.5 24.5t-97.5 66.5t-67 97t-25 119zM102 481 v236q0 72 24 130t64.5 100t97 64.5t122.5 22.5q72 0 135 -31.5t106 -84.5q14 53 48 79.5t100 26.5v-82q-33 0 -49.5 -16.5t-23.5 -45t-8 -70.5t-1 -93v-236q0 -70 -24.5 -128t-66.5 -100t-97.5 -65.5t-118.5 -23.5q-66 0 -122.5 23.5t-97 65.5t-64.5 100.5t-24 127.5z M184 481q0 -111 60.5 -173t165.5 -62q98 0 161.5 62.5t63.5 172.5v236q0 113 -63.5 174t-161.5 61q-104 0 -165 -61.5t-61 -173.5v-236z" />
<glyph unicode="h" horiz-adv-x="849" d="M123 0v1434h82v-516q41 45 100.5 80.5t124.5 35.5q66 0 122 -22.5t97 -64.5t64.5 -100.5t23.5 -129.5v-717h-82v717q0 113 -60 174t-165 61q-98 0 -161.5 -61.5t-63.5 -173.5v-717h-82z" />
<glyph unicode="i" horiz-adv-x="348" d="M123 1260q0 23 14.5 37t36.5 14q23 0 37 -14.5t14 -36.5q0 -23 -14 -37.5t-37 -14.5t-37 14.5t-14 37.5zM133 0v1024h82v-1024h-82z" />
<glyph unicode="j" horiz-adv-x="337" d="M-102 -471q98 0 161.5 63.5t63.5 171.5v1260h82v-1260q0 -74 -24.5 -129t-66.5 -97t-97.5 -66.5t-118.5 -24.5v82zM113 1260q0 23 14 37t37 14t37 -14.5t14 -36.5q0 -23 -14.5 -37.5t-36.5 -14.5q-23 0 -37 14.5t-14 37.5z" />
<glyph unicode="k" horiz-adv-x="817" d="M123 0v1434h82v-1434h-82zM287 541v82l321 401h109l-357 -446l416 -578h-100z" />
<glyph unicode="l" horiz-adv-x="368" d="M123 297v1137h82v-1137q0 -57 1 -96t8 -68t23.5 -45t49.5 -16v-82q-57 0 -90 23.5t-49.5 63.5t-20.5 94t-4 126z" />
<glyph unicode="m" horiz-adv-x="1300" d="M123 0v1024h82v-109q41 45 90 82t115 37q88 0 146 -43t99 -112q41 70 100.5 112.5t145.5 42.5q66 0 119 -23.5t90 -65.5t57.5 -100.5t20.5 -127.5v-717h-82v717q0 111 -50 173t-155 62q-98 0 -151.5 -62.5t-53.5 -172.5v-717h-82v717q0 111 -50 173t-154 62 q-98 0 -149.5 -61.5t-55.5 -165.5v-725h-82z" />
<glyph unicode="n" horiz-adv-x="849" d="M123 0v1024h82v-109q41 45 100.5 82t124.5 37q66 0 122 -23.5t97 -65.5t64.5 -100.5t23.5 -127.5v-717h-82v717q0 111 -60 173t-165 62q-98 0 -161.5 -62.5t-63.5 -172.5v-717h-82z" />
<glyph unicode="o" horiz-adv-x="798" d="M92 307v410q0 72 23.5 130t64.5 100t97.5 64.5t121.5 22.5q63 0 118.5 -22.5t97.5 -64.5t67 -100.5t25 -129.5v-410q0 -70 -25 -128t-67 -100t-97.5 -65.5t-118.5 -23.5q-66 0 -122 23.5t-97 65.5t-64.5 100.5t-23.5 127.5zM174 307q0 -111 60.5 -173t164.5 -62 q98 0 162 62.5t64 172.5v410q0 113 -63.5 174t-162.5 61q-104 0 -164.5 -61.5t-60.5 -173.5v-410z" />
<glyph unicode="p" horiz-adv-x="829" d="M123 -532v1556h82v-109q41 45 100.5 82t124.5 37q66 0 122 -23.5t97 -65.5t64.5 -100.5t23.5 -127.5v-400q0 -72 -24.5 -131t-66.5 -100t-97 -63.5t-119 -22.5q-78 0 -143 35v90q29 -20 65.5 -31.5t77.5 -11.5q98 0 161.5 61.5t63.5 173.5v400q0 111 -60 173t-165 62 q-98 0 -161.5 -62.5t-63.5 -172.5v-1249h-82z" />
<glyph unicode="q" horiz-adv-x="829" d="M92 317v400q0 70 23.5 128t64.5 100t97.5 65.5t121.5 23.5q63 0 118.5 -23.5t97.5 -65.5t67 -100.5t25 -127.5v-1249h-82v1249q0 111 -63.5 173t-162.5 62q-104 0 -164.5 -62.5t-60.5 -172.5v-400q0 -113 63.5 -174t161.5 -61q41 0 78 11t66 32v-90q-66 -35 -144 -35 q-63 0 -118.5 22.5t-97.5 63.5t-66.5 100.5t-24.5 130.5z" />
<glyph unicode="r" horiz-adv-x="614" d="M123 0v1024h82v-104q78 82 176 106q32 8 64 9q65 0 128 -34v-96q-55 43 -119 51q-16 2 -33 3q-46 0 -87 -19q-55 -25 -92 -80t-37 -137v-723h-82z" />
<glyph unicode="s" horiz-adv-x="757" d="M72 297h82q0 -98 60 -161.5t165 -63.5q98 0 161.5 62.5t63.5 172.5q0 88 -63.5 138.5t-161.5 66.5q-55 8 -103.5 29.5t-84 53.5t-57 73t-21.5 90q0 61 20.5 112.5t57 87t85 56t103.5 20.5q86 0 155.5 -42t108.5 -109l-65 -43q-27 51 -78 81.5t-121 30.5q-78 0 -131 -53 t-53 -141q0 -33 16 -60.5t44 -49t63.5 -36t72.5 -20.5q61 -8 115.5 -32.5t94.5 -61.5t62.5 -85t22.5 -106q0 -70 -24.5 -128t-66.5 -100t-97.5 -65.5t-118.5 -23.5q-66 0 -122 24.5t-97 66.5t-64.5 97t-23.5 119z" />
<glyph unicode="t" horiz-adv-x="532" d="M61 942v82h82v410h82v-410h185v-82h-185v-635q0 -66 23.5 -111.5t64.5 -76.5t93 -43q23 -6 47 -6q19 0 39 4v-82q-17 -2 -34 -2q-40 0 -81 10q-66 18 -118 59t-84 102.5t-32 145.5v635h-82z" />
<glyph unicode="u" horiz-adv-x="849" d="M113 307v717h82v-717q0 -111 60 -173t165 -62q92 0 156.5 59t68.5 166v727h82v-729q0 -49 1 -88t9 -66.5t24.5 -43t47.5 -15.5v-82q-66 0 -98.5 29.5t-46.5 81.5q-43 -55 -106.5 -88t-137.5 -33q-66 0 -122 23.5t-97 65.5t-64.5 100.5t-23.5 127.5z" />
<glyph unicode="v" horiz-adv-x="704" d="M41 1024h86l225 -922l226 922h86l-250 -1024h-123z" />
<glyph unicode="w" horiz-adv-x="1064" d="M41 1024h86l170 -926l170 926h133l170 -926l168 926h86l-188 -1024h-134l-170 926l-170 -926h-133z" />
<glyph unicode="x" horiz-adv-x="634" d="M41 0l229 512l-229 512h92l184 -410l185 410h92l-232 -512l232 -512h-92l-185 410l-184 -410h-92z" />
<glyph unicode="y" horiz-adv-x="706" d="M41 -463q74 4 134.5 50t78.5 120l55 225l-268 1092h86l225 -920l228 920h86l-332 -1333q-12 -53 -42 -95t-69 -73t-86 -48.5t-96 -19.5v82z" />
<glyph unicode="z" horiz-adv-x="675" d="M51 0l424 942h-403v82h532l-424 -942h445v-82h-574z" />
<glyph unicode="{" horiz-adv-x="530" d="M143 676v82q33 0 49.5 17.5t23.5 49t8 74.5t1 94v140q0 86 33 162.5t90 134.5q51 51 127 86l35 -74q-61 -29 -104 -72q-45 -45 -72 -106t-27 -131v-140q0 -35 -3 -73.5t-12 -75.5t-24.5 -71t-40.5 -56q25 -25 40.5 -57.5t24.5 -70.5t12 -77t3 -72v-137q0 -70 26.5 -131 t72.5 -109q43 -41 104 -69l-35 -76q-78 35 -127 88q-57 57 -90 134t-33 163v137q0 51 -1 94.5t-8 75t-23.5 49t-49.5 17.5z" />
<glyph unicode="|" horiz-adv-x="368" d="M143 -164v1761h82v-1761h-82z" />
<glyph unicode="}" horiz-adv-x="530" d="M20 -6q61 29 105 69q45 47 71.5 108.5t26.5 131.5v137q0 33 3 72t12.5 77t25 70.5t39.5 57.5q-25 23 -40 56.5t-24.5 70.5t-12.5 75.5t-3 73.5v140q0 70 -26.5 131t-71.5 106q-43 43 -105 72l35 74q76 -35 127 -86q57 -57 90 -134t33 -163v-140q0 -51 1 -94t8.5 -74.5 t23.5 -49t49 -17.5v-82q-33 0 -49 -17.5t-23.5 -49t-8.5 -74.5t-1 -95v-137q0 -86 -32.5 -163t-90.5 -134q-49 -53 -127 -88z" />
<glyph unicode="~" horiz-adv-x="1038" d="M123 594q37 86 100.5 120t134.5 34q55 0 99.5 -23t84.5 -48.5t78.5 -48t88.5 -22.5q41 0 75.5 28t55.5 75l75 -33q-29 -72 -84 -112t-122 -40q-63 0 -112.5 27t-94.5 55q-35 23 -69 41.5t-75 18.5q-47 0 -91 -24t-68 -81z" />
<glyph unicode="&#xa1;" horiz-adv-x="348" d="M102 1362q0 29 21.5 50.5t50.5 21.5t50.5 -21.5t21.5 -50.5t-21.5 -50.5t-50.5 -21.5t-50.5 21.5t-21.5 50.5zM133 0l21 1126h41l20 -1126h-82z" />
<glyph unicode="&#xa2;" horiz-adv-x="737" d="M92 307v410q0 72 23.5 130t64.5 100t97.5 64.5t121.5 22.5q74 0 141.5 -33.5t110.5 -99.5l-65 -39q-20 39 -66.5 60.5t-99.5 29.5v-880q47 4 92 26.5t72 63.5l65 -43q-41 -57 -107.5 -93t-142.5 -36q-66 0 -122 23.5t-97 65.5t-64.5 100.5t-23.5 127.5zM174 307 q0 -92 43 -151.5t121 -77.5v866q-78 -16 -121 -74.5t-43 -152.5v-410z" />
<glyph unicode="&#xa3;" horiz-adv-x="860" d="M123 0v1126q0 84 31.5 145.5t84 102.5t117.5 60q57 14 115 8v-82q-45 8 -86 -2q-51 -12 -92 -43t-64.5 -77t-23.5 -112v-421h348v-82h-348v-541h614v-82h-696z" />
<glyph unicode="&#xa4;" horiz-adv-x="976" d="M133 410v614q0 96 33 173t90 134.5t134 90t163 32.5t163 -32.5t117.5 -74.5t61.5 -71l-2 2l-68 -45q-16 20 -48 53t-93 59.5t-131 26.5t-131.5 -26.5t-107.5 -72.5t-72.5 -107.5t-26.5 -141.5v-135h348v-82h-348v-102h348v-82h-348v-213q0 -80 26.5 -141.5t72.5 -107.5 t107.5 -73t131.5 -27t131 27t93 58.5t48 54.5l70 -45q-20 -29 -61 -70t-118 -73.5t-163 -32.5t-163 32.5t-134 90t-90 134t-33 173.5z" />
<glyph unicode="&#xa5;" horiz-adv-x="839" d="M51 1434h94l277 -615l276 615h90l-325 -729h162v-82h-162v-103h162v-82h-162v-438h-82v438h-186v82h186v103h-186v82h186z" />
<glyph unicode="&#xa6;" horiz-adv-x="368" d="M143 -164v737h82v-737h-82zM143 737v860h82v-860h-82z" />
<glyph unicode="&#xa7;" horiz-adv-x="745" d="M82 858q0 29 10 61.5t37 69.5q-20 35 -31.5 77t-11.5 91q0 59 22.5 111.5t61.5 91.5t91 61.5t112 22.5q59 0 111.5 -22.5t91 -61.5t61 -91t22.5 -112h-81q0 86 -59.5 145.5t-145.5 59.5t-145.5 -59.5t-59.5 -145.5q0 -66 25.5 -116t65.5 -91t89 -73.5t98 -61.5 q43 -27 82 -52.5t70 -53t48.5 -60.5t17.5 -74q0 -29 -10.5 -62.5t-37.5 -70.5q20 -35 31.5 -76.5t11.5 -89.5q0 -59 -22.5 -111t-61 -91t-91 -61.5t-111.5 -22.5t-111.5 22.5t-91.5 61.5t-61.5 91t-22.5 111h82q0 -86 59.5 -145t145.5 -59t145.5 59t59.5 145q0 66 -26 116 t-66 91t-89 74t-98 61q-43 27 -82 52.5t-69.5 53.5t-48 60.5t-17.5 73.5zM164 858q0 -23 15.5 -44t40 -42.5t56 -42t64.5 -41.5q57 -35 117.5 -77t107.5 -95q16 31 17 59q0 23 -15.5 44.5t-40 43t-56 42t-64.5 40.5q-59 35 -119 77t-107 96q-16 -31 -16 -60z" />
<glyph unicode="&#xa8;" horiz-adv-x="737" d="M184 1260q0 23 14.5 37t37.5 14t37 -14.5t14 -36.5q0 -23 -14.5 -37.5t-36.5 -14.5q-23 0 -37.5 14.5t-14.5 37.5zM451 1260q0 23 14 37t37 14t37 -14.5t14 -36.5q0 -23 -14.5 -37.5t-36.5 -14.5q-23 0 -37 14.5t-14 37.5z" />
<glyph unicode="&#xa9;" horiz-adv-x="1597" d="M61 717q0 154 58.5 288t158 233t233.5 157.5t288 58.5t288 -58.5t233 -157.5t157.5 -233.5t58.5 -287.5q0 -154 -58.5 -288t-157.5 -233.5t-233.5 -157.5t-287.5 -58q-154 0 -288 58t-233.5 157.5t-158 233.5t-58.5 288zM143 717q0 -135 51.5 -255t140.5 -209t209 -140.5 t255 -51.5t255 51.5t209 140.5t140 209t51 255t-51 255t-140 209t-209 140t-255 51t-255 -51t-209 -140t-140.5 -209t-51.5 -255zM496 506v420q0 68 24.5 125t66.5 99t96 65.5t116 23.5q51 0 95 -16.5t77 -39t54.5 -44t27.5 -33.5l-70 -41q-6 8 -21.5 23.5t-39 31t-55 26.5 t-68.5 11q-43 0 -83 -17.5t-71 -48t-49 -73.5t-18 -92v-420q0 -49 18 -91t49 -73t71 -48.5t83 -17.5q37 0 68.5 10.5t55 26t38 30.5t20.5 26l74 -37q-8 -14 -29.5 -38t-54.5 -46.5t-77 -38.5t-95 -14q-61 0 -115.5 23.5t-96.5 64.5t-66.5 98t-24.5 125z" />
<glyph unicode="&#xaa;" horiz-adv-x="393" d="M51 1157q0 53 38 90t97 37v-82q-23 0 -38 -12t-15 -33q0 -27 15.5 -42t37.5 -15q51 0 52 57v143q0 25 -14.5 40.5t-37.5 15.5q-31 0 -43 -21l-69 41q18 31 49 46.5t63 15.5q55 0 94 -38t39 -100v-155q0 -41 23 -41v-82q-43 0 -70 22q-33 -27 -86 -26q-59 0 -97 38 t-38 101z" />
<glyph unicode="&#xab;" horiz-adv-x="1306" d="M143 528v90l529 238v-88l-430 -195q109 -47 215 -97t215 -99v-86zM635 528v90l528 238v-88l-430 -195q109 -47 215.5 -97t214.5 -99v-86z" />
<glyph unicode="&#xac;" horiz-adv-x="1228" d="M61 412v82h1024v-658h-81v576h-943z" />
<glyph unicode="&#xad;" horiz-adv-x="1705" />
<glyph unicode="&#xae;" horiz-adv-x="1597" d="M61 717q0 154 58.5 288t158 233t233.5 157.5t288 58.5t288 -58.5t233 -157.5t157.5 -233.5t58.5 -287.5q0 -154 -58.5 -288t-157.5 -233.5t-233.5 -157.5t-287.5 -58q-154 0 -288 58t-233.5 157.5t-158 233.5t-58.5 288zM143 717q0 -135 51.5 -255t140.5 -209t209 -140.5 t255 -51.5t255 51.5t209 140.5t140 209t51 255t-51 255t-140 209t-209 140t-255 51t-255 -51t-209 -140t-140.5 -209t-51.5 -255zM563 205v1024h338q53 0 99.5 -18.5t80 -52.5t53 -81t19.5 -104q0 -45 -19.5 -89t-53 -79t-80 -56.5t-99.5 -21.5h-110l370 -522h-100l-371 522 v82h211q37 0 67.5 14.5t53 38t36 52t13.5 59.5q0 78 -49 126t-121 48h-256v-942h-82z" />
<glyph unicode="&#xaf;" horiz-adv-x="655" d="M143 1290v82h369v-82h-369z" />
<glyph unicode="&#xb0;" horiz-adv-x="716" d="M102 1280q0 53 20.5 99t55.5 81t81 55.5t99 20.5t99.5 -20.5t81 -55.5t55 -81t20.5 -99t-20.5 -99t-55 -81t-80.5 -55.5t-100 -20.5q-53 0 -99 20.5t-81 55.5t-55.5 81t-20.5 99zM184 1280q0 -72 51.5 -123t122.5 -51q72 0 123 51t51 123t-51 123t-123 51t-123 -51 t-51 -123z" />
<glyph unicode="&#xb1;" horiz-adv-x="1024" d="M184 328v82h656v-82h-656zM184 778v82h287v287h82v-287h287v-82h-287v-286h-82v286h-287z" />
<glyph unicode="&#xb2;" horiz-adv-x="520" d="M102 1339q33 45 75 72t87 27q78 0 116 -45.5t38 -104.5q0 -53 -32 -96t-73 -82q-35 -31 -66.5 -65.5t-43.5 -83.5h215v-82h-303q0 63 13 108t33.5 79t45 59.5t49.5 48.5q33 29 56.5 57.5t23.5 56.5q0 29 -18.5 48.5t-53.5 19.5q-23 0 -45 -15.5t-43 -42.5z" />
<glyph unicode="&#xb3;" horiz-adv-x="536" d="M102 973l74 41q20 -27 42 -42.5t44 -15.5q39 0 65.5 28t26.5 69q0 35 -34.5 59.5t-83.5 24.5l4 82q35 0 61.5 19t26.5 42q0 35 -18.5 55.5t-47.5 20.5q-23 0 -44 -15.5t-42 -42.5l-74 41q33 45 76 72t84 27q59 0 103.5 -43t44.5 -113q0 -29 -11.5 -54.5t-29.5 -45.5 q66 -49 65 -129q0 -78 -50 -128.5t-122 -50.5q-41 0 -84 27t-76 72z" />
<glyph unicode="&#xb4;" horiz-adv-x="538" d="M184 1208l80 246h90l-104 -246h-66z" />
<glyph unicode="&#xb5;" horiz-adv-x="860" d="M123 -287v1311h82v-717q0 -111 60.5 -173t164.5 -62q92 0 156.5 59t68.5 166v727h82v-729q0 -49 1 -88t9.5 -66.5t24.5 -43t47 -15.5v-82q-66 0 -98.5 29.5t-46.5 81.5q-43 -55 -106.5 -88t-137.5 -33q-139 0 -225 96v-373h-82z" />
<glyph unicode="&#xb6;" horiz-adv-x="921" d="M61 1085q0 80 27 141.5t73 107.5t107.5 73t130.5 27h379v-1434h-82v1352h-82v-1352h-82v758h-133q-70 0 -131 26.5t-107 72.5t-73 107.5t-27 120.5zM143 1085q0 -43 20.5 -89t55.5 -81t80 -55q47 -20 100 -20h133v512h-133q-53 0 -99 -20.5t-81 -55.5t-55.5 -81 t-20.5 -110z" />
<glyph unicode="&#xb7;" horiz-adv-x="348" d="M102 758q0 29 21.5 50t50.5 21t50.5 -21.5t21.5 -49.5q0 -29 -21.5 -50.5t-50.5 -21.5t-50.5 21.5t-21.5 50.5z" />
<glyph unicode="&#xb8;" horiz-adv-x="577" d="M184 -270l43 43q18 -18 43 -19q25 0 43.5 18.5t18.5 43.5q0 27 -18.5 44t-43.5 17v62q49 0 86 -36t37 -87q0 -49 -37 -86t-86 -37t-86 37z" />
<glyph unicode="&#xb9;" horiz-adv-x="356" d="M102 1352v82h152v-555h-82v473h-70z" />
<glyph unicode="&#xba;" horiz-adv-x="534" d="M102 1047v221q0 78 47.5 124t118.5 46q66 0 115 -46t49 -124v-221q0 -76 -49 -124.5t-115 -48.5q-72 0 -119 48.5t-47 124.5zM184 1047q0 -41 24.5 -66t59.5 -25q33 0 57.5 25t24.5 66v221q0 41 -24.5 64.5t-57.5 23.5q-35 0 -59.5 -23.5t-24.5 -64.5v-221z" />
<glyph unicode="&#xbb;" horiz-adv-x="1306" d="M143 291v86q109 49 215.5 99t214.5 97l-430 195v88l529 -238v-90zM635 291v86q109 49 215 99t215 97l-430 195v88l528 -238v-90z" />
<glyph unicode="&#xbc;" horiz-adv-x="833" d="M123 1352v82h151v-555h-81v473h-70zM172 0l344 1434h84l-344 -1434h-84zM449 158v61l92 344h84l-86 -323h59v114h82v-114h72v-82h-72v-158h-82v158h-149z" />
<glyph unicode="&#xbd;" horiz-adv-x="815" d="M123 1352v82h151v-555h-81v473h-70zM172 0l344 1434h84l-344 -1434h-84zM438 461q33 45 75 71.5t87 26.5q78 0 116 -45t38 -104q0 -53 -32 -96.5t-73 -82.5q-35 -31 -66.5 -65.5t-43.5 -83.5h215v-82h-303q0 63 13 108.5t33.5 79t45 59t49.5 48.5q33 29 56.5 57.5 t23.5 57.5t-18.5 48t-53.5 19q-23 0 -45.5 -15.5t-42.5 -41.5z" />
<glyph unicode="&#xbe;" horiz-adv-x="929" d="M102 973l74 41q20 -27 42 -42.5t44 -15.5q39 0 65.5 28t26.5 69q0 35 -34.5 59.5t-83.5 24.5l4 82q35 0 61.5 19t26.5 42q0 35 -18.5 55.5t-47.5 20.5q-23 0 -44 -15.5t-42 -42.5l-74 41q33 45 76 72t84 27q59 0 103.5 -43t44.5 -113q0 -29 -11.5 -54.5t-29.5 -45.5 q66 -49 65 -129q0 -78 -50 -128.5t-122 -50.5q-41 0 -84 27t-76 72zM268 0l344 1434h84l-344 -1434h-84zM545 158v61l92 344h84l-86 -323h59v114h82v-114h72v-82h-72v-158h-82v158h-149z" />
<glyph unicode="&#xbf;" horiz-adv-x="770" d="M61 358q0 61 13.5 110.5t35 91.5t49 81t56.5 82q29 41 59.5 84t56 92t42 104.5t16.5 122.5h41q0 -76 -11 -138t-31.5 -115.5t-48.5 -101.5t-58 -93q-27 -37 -51.5 -72t-44 -71.5t-31 -79.5t-11.5 -97q0 -63 20.5 -116.5t57.5 -91t85 -58t104 -20.5q86 0 155.5 37.5 t116.5 101.5l68 -45q-57 -80 -146.5 -128t-193.5 -48q-72 0 -135.5 27.5t-110.5 76.5t-75 116.5t-28 147.5zM338 1362q0 29 21.5 50.5t50.5 21.5t50 -21.5t21 -50.5t-21.5 -50.5t-49.5 -21.5q-29 0 -50.5 21.5t-21.5 50.5z" />
<glyph unicode="&#xc0;" horiz-adv-x="925" d="M51 0h82l131 532h398l131 -532h81l-350 1434h-123zM285 614l178 732l178 -732h-356zM338 1733h90l76 -197h-66z" />
<glyph unicode="&#xc1;" horiz-adv-x="925" d="M51 0l350 1434h123l350 -1434h-81l-131 532h-398l-131 -532h-82zM285 614h356l-178 732zM438 1536l76 197h90l-100 -197h-66z" />
<glyph unicode="&#xc2;" horiz-adv-x="925" d="M51 0h82l131 532h398l131 -532h81l-350 1434h-123zM262 1536l154 176h94l154 -176h-105l-96 137l-96 -137h-105zM285 614l178 732l178 -732h-356z" />
<glyph unicode="&#xc3;" horiz-adv-x="925" d="M51 0l350 1434h123l350 -1434h-81l-131 532h-398l-131 -532h-82zM174 1610q27 59 72 83.5t94 24.5q39 0 70.5 -15t59.5 -34.5t55.5 -35t62.5 -15.5q29 0 53.5 19.5t38.5 54.5l74 -33q-27 -59 -70 -86t-96 -27q-37 0 -68 15.5t-59.5 35t-57 35t-63.5 15.5 q-29 0 -53.5 -18.5t-38.5 -51.5zM285 614h356l-178 732z" />
<glyph unicode="&#xc4;" horiz-adv-x="925" d="M51 0l350 1434h123l350 -1434h-81l-131 532h-398l-131 -532h-82zM279 1669q0 23 14 37t37 14t37 -14t14 -37t-14.5 -37t-36.5 -14q-23 0 -37 14t-14 37zM285 614h356l-178 732zM545 1669q0 23 14 37t37 14t37 -14t14 -37t-14.5 -37t-36.5 -14q-23 0 -37 14t-14 37z" />
<glyph unicode="&#xc5;" horiz-adv-x="925" d="M51 0l350 1434h123l350 -1434h-81l-131 532h-398l-131 -532h-82zM285 614h356l-178 732zM289 1700q0 72 51 123t123 51t123 -51t51 -123t-51 -123t-123 -51t-123 51t-51 123zM350 1700q0 -47 33 -80t80 -33t79.5 33t32.5 80t-32.5 79.5t-79.5 32.5t-80 -32.5t-33 -79.5z " />
<glyph unicode="&#xc6;" horiz-adv-x="1570" d="M51 0l742 1434h696v-82h-615v-512h410v-82h-410v-676h615v-82h-696v532h-385l-275 -532h-82zM451 614h342v662z" />
<glyph unicode="&#xc7;" horiz-adv-x="976" d="M133 420v594q0 96 33 173t90 134t134 90t163 33t163 -33t117.5 -75t61.5 -70l-70 -43q-16 20 -48 53t-93 59.5t-131 26.5t-131.5 -26.5t-107.5 -72.5t-72.5 -107.5t-26.5 -141.5v-594q0 -80 26.5 -141.5t72.5 -107.5t107.5 -72.5t131.5 -26.5t131 26.5t93 59t48 53.5 l70 -43q-20 -29 -61 -71t-118 -74.5t-163 -32.5t-163 32.5t-134 90t-90 134.5t-33 173zM410 -272l43 43q18 -18 43 -19q25 0 43 18.5t18 43.5q0 27 -18.5 44t-42.5 17v62q49 0 85.5 -36t36.5 -87q0 -49 -36.5 -86t-85.5 -37t-86 37z" />
<glyph unicode="&#xc8;" horiz-adv-x="921" d="M143 0h697v82h-615v676h410v82h-410v512h615v82h-697v-1434zM377 1733h90l76 -197h-66z" />
<glyph unicode="&#xc9;" horiz-adv-x="921" d="M143 0v1434h697v-82h-615v-512h410v-82h-410v-676h615v-82h-697zM420 1536l76 197h90l-101 -197h-65z" />
<glyph unicode="&#xca;" horiz-adv-x="921" d="M143 0h697v82h-615v676h410v82h-410v512h615v82h-697v-1434zM260 1536l154 176h94l154 -176h-105l-96 137l-96 -137h-105z" />
<glyph unicode="&#xcb;" horiz-adv-x="921" d="M143 0v1434h697v-82h-615v-512h410v-82h-410v-676h615v-82h-697zM266 1669q0 23 14.5 37t36.5 14q23 0 37.5 -14t14.5 -37t-14.5 -37t-37.5 -14t-37 14t-14 37zM532 1669q0 23 14.5 37t37.5 14t37 -14t14 -37t-14.5 -37t-36.5 -14q-23 0 -37.5 14t-14.5 37z" />
<glyph unicode="&#xcc;" horiz-adv-x="368" d="M55 1733h90l76 -197h-65zM143 0h82v1434h-82v-1434z" />
<glyph unicode="&#xcd;" horiz-adv-x="368" d="M143 0v1434h82v-1434h-82zM160 1536l76 197h90l-101 -197h-65z" />
<glyph unicode="&#xce;" horiz-adv-x="368" d="M-16 1536l153 176h94l154 -176h-104l-97 137l-96 -137h-104zM143 0h82v1434h-82v-1434z" />
<glyph unicode="&#xcf;" horiz-adv-x="368" d="M0 1669q0 23 14.5 37t36.5 14q23 0 37 -14t14 -37t-14 -37t-37 -14t-37 14t-14 37zM143 0v1434h82v-1434h-82zM266 1669q0 23 14.5 37t36.5 14q23 0 37.5 -14t14.5 -37t-14.5 -37t-37.5 -14t-37 14t-14 37z" />
<glyph unicode="&#xd0;" horiz-adv-x="1116" d="M41 758v82h102v594h420q86 0 163 -33t134.5 -90.5t90 -134t32.5 -172.5v-574q0 -96 -32.5 -173t-90 -134t-134.5 -90t-163 -33h-420v758h-102zM225 82h338q70 0 131.5 26.5t107.5 72.5t72.5 107.5t26.5 141.5v574q0 80 -26.5 141t-72.5 107t-107.5 73t-131.5 27h-338 v-512h226v-82h-226v-676z" />
<glyph unicode="&#xd1;" horiz-adv-x="1064" d="M143 0v1434h115l582 -1297v1297h82v-1434h-111l-586 1296v-1296h-82zM242 1610q27 59 71.5 83.5t94.5 24.5q39 0 70.5 -15t59 -34.5t55.5 -35t62 -15.5q29 0 53.5 19.5t39.5 54.5l73 -33q-27 -59 -69.5 -86t-96.5 -27q-37 0 -67.5 15.5t-59 35t-57.5 35t-63 15.5 q-29 0 -53.5 -18.5t-39.5 -51.5z" />
<glyph unicode="&#xd2;" d="M133 420q0 -92 33 -171t90 -136.5t134 -90t163 -32.5t163 32.5t134 90t90 136.5t33 171v594q0 92 -33 171t-90 136t-134 90t-163 33t-163 -33t-134 -90t-90 -136t-33 -171v-594zM215 420v594q0 76 26.5 140.5t72.5 110.5t107.5 71.5t131.5 25.5t131 -25.5t107.5 -71.5 t73 -110.5t26.5 -140.5v-594q0 -76 -26.5 -140.5t-73 -110.5t-107.5 -71.5t-131 -25.5t-131.5 25.5t-107.5 71.5t-72.5 110.5t-26.5 140.5zM428 1733h90l76 -197h-66z" />
<glyph unicode="&#xd3;" d="M133 420v594q0 92 33 171t90 136t134 90t163 33t163 -33t134 -90t90 -136t33 -171v-594q0 -92 -33 -171t-90 -136.5t-134 -90t-163 -32.5t-163 32.5t-134 90t-90 136.5t-33 171zM215 420q0 -76 26.5 -140.5t72.5 -110.5t107.5 -71.5t131.5 -25.5t131 25.5t107.5 71.5 t73 110.5t26.5 140.5v594q0 76 -26.5 140.5t-73 110.5t-107.5 71.5t-131 25.5t-131.5 -25.5t-107.5 -71.5t-72.5 -110.5t-26.5 -140.5v-594zM512 1536l76 197h90l-100 -197h-66z" />
<glyph unicode="&#xd4;" d="M133 420q0 -92 33 -171t90 -136.5t134 -90t163 -32.5t163 32.5t134 90t90 136.5t33 171v594q0 92 -33 171t-90 136t-134 90t-163 33t-163 -33t-134 -90t-90 -136t-33 -171v-594zM215 420v594q0 76 26.5 140.5t72.5 110.5t107.5 71.5t131.5 25.5t131 -25.5t107.5 -71.5 t73 -110.5t26.5 -140.5v-594q0 -76 -26.5 -140.5t-73 -110.5t-107.5 -71.5t-131 -25.5t-131.5 25.5t-107.5 71.5t-72.5 110.5t-26.5 140.5zM352 1536l154 176h94l154 -176h-105l-96 137l-96 -137h-105z" />
<glyph unicode="&#xd5;" d="M133 420v594q0 92 33 171t90 136t134 90t163 33t163 -33t134 -90t90 -136t33 -171v-594q0 -92 -33 -171t-90 -136.5t-134 -90t-163 -32.5t-163 32.5t-134 90t-90 136.5t-33 171zM215 420q0 -76 26.5 -140.5t72.5 -110.5t107.5 -71.5t131.5 -25.5t131 25.5t107.5 71.5 t73 110.5t26.5 140.5v594q0 76 -26.5 140.5t-73 110.5t-107.5 71.5t-131 25.5t-131.5 -25.5t-107.5 -71.5t-72.5 -110.5t-26.5 -140.5v-594zM262 1610q27 59 72 83.5t94 24.5q39 0 70.5 -15t59.5 -34.5t55.5 -35t62.5 -15.5q29 0 53.5 19.5t38.5 54.5l74 -33 q-27 -59 -70 -86t-96 -27q-37 0 -67.5 15.5t-59.5 35t-57.5 35t-63.5 15.5q-29 0 -53.5 -18.5t-38.5 -51.5z" />
<glyph unicode="&#xd6;" d="M133 420v594q0 92 33 171t90 136t134 90t163 33t163 -33t134 -90t90 -136t33 -171v-594q0 -92 -33 -171t-90 -136.5t-134 -90t-163 -32.5t-163 32.5t-134 90t-90 136.5t-33 171zM215 420q0 -76 26.5 -140.5t72.5 -110.5t107.5 -71.5t131.5 -25.5t131 25.5t107.5 71.5 t73 110.5t26.5 140.5v594q0 76 -26.5 140.5t-73 110.5t-107.5 71.5t-131 25.5t-131.5 -25.5t-107.5 -71.5t-72.5 -110.5t-26.5 -140.5v-594zM369 1669q0 23 14 37t37 14t37 -14t14 -37t-14.5 -37t-36.5 -14q-23 0 -37 14t-14 37zM635 1669q0 23 14.5 37t36.5 14q23 0 37 -14 t14 -37t-14 -37t-37 -14t-37 14t-14 37z" />
<glyph unicode="&#xd7;" horiz-adv-x="888" d="M184 453l203 202l-203 203l58 57l202 -202l203 202l58 -57l-203 -203l203 -202l-58 -58l-203 203l-202 -203z" />
<glyph unicode="&#xd8;" d="M133 420v594q0 92 33 171t90 136t134 90t163 33t163 -33t134 -90t90 -136t33 -171v-594q0 -92 -33 -171t-90 -136.5t-134 -90t-163 -32.5t-163 32.5t-134 90t-90 136.5t-33 171zM215 420q0 -98 41 -173t111 -122l295 1218q-53 18 -109 19q-70 0 -131.5 -25.5 t-107.5 -71.5t-72.5 -110.5t-26.5 -140.5v-594zM442 88q47 -16 111 -16q70 0 131 25.5t107.5 71.5t73 110.5t26.5 140.5v594q0 98 -42 174t-114 121z" />
<glyph unicode="&#xd9;" d="M133 420q0 -92 33 -171t90 -136.5t134 -90t163 -32.5t163 32.5t134 90t90 136.5t33 171v1014h-82v-1014q0 -76 -26.5 -140.5t-73 -110.5t-107.5 -71.5t-131 -25.5t-131.5 25.5t-107.5 71.5t-72.5 110.5t-26.5 140.5v1014h-82v-1014zM449 1733h90l75 -197h-65z" />
<glyph unicode="&#xda;" d="M133 420v1014h82v-1014q0 -76 26.5 -140.5t72.5 -110.5t107.5 -71.5t131.5 -25.5t131 25.5t107.5 71.5t73 110.5t26.5 140.5v1014h82v-1014q0 -92 -33 -171t-90 -136.5t-134 -90t-163 -32.5t-163 32.5t-134 90t-90 136.5t-33 171zM492 1536l75 197h90l-100 -197h-65z" />
<glyph unicode="&#xdb;" d="M133 420q0 -92 33 -171t90 -136.5t134 -90t163 -32.5t163 32.5t134 90t90 136.5t33 171v1014h-82v-1014q0 -76 -26.5 -140.5t-73 -110.5t-107.5 -71.5t-131 -25.5t-131.5 25.5t-107.5 71.5t-72.5 110.5t-26.5 140.5v1014h-82v-1014zM352 1536l154 176h94l154 -176h-105 l-96 137l-96 -137h-105z" />
<glyph unicode="&#xdc;" d="M133 420v1014h82v-1014q0 -76 26.5 -140.5t72.5 -110.5t107.5 -71.5t131.5 -25.5t131 25.5t107.5 71.5t73 110.5t26.5 140.5v1014h82v-1014q0 -92 -33 -171t-90 -136.5t-134 -90t-163 -32.5t-163 32.5t-134 90t-90 136.5t-33 171zM369 1669q0 23 14 37t37 14t37 -14 t14 -37t-14.5 -37t-36.5 -14q-23 0 -37 14t-14 37zM635 1669q0 23 14.5 37t36.5 14q23 0 37 -14t14 -37t-14 -37t-37 -14t-37 14t-14 37z" />
<glyph unicode="&#xdd;" horiz-adv-x="839" d="M51 1434h94l277 -615l276 615h90l-325 -729v-705h-82v705zM358 1536l76 197h90l-100 -197h-66z" />
<glyph unicode="&#xde;" horiz-adv-x="1003" d="M143 0v1434h82v-185h379q70 0 131.5 -26.5t107.5 -72.5t72.5 -107.5t26.5 -141.5q0 -59 -26.5 -120.5t-72.5 -107.5t-107.5 -73t-131.5 -27h-297v82h297q53 0 99.5 20.5t81 55.5t55 81t20.5 89q0 63 -20.5 109.5t-55 81t-81 55t-99.5 20.5h-379v-1167h-82z" />
<glyph unicode="&#xdf;" horiz-adv-x="829" d="M123 0v1126q0 70 24.5 128.5t66.5 100.5t97.5 65.5t118.5 23.5q66 0 122 -23.5t97 -65.5t64.5 -100.5t23.5 -128.5q0 -88 -43 -146t-112 -99q70 -41 112.5 -100.5t42.5 -145.5v-328q0 -70 -24.5 -128t-66.5 -100t-97 -65.5t-119 -23.5v82q98 0 161.5 62.5t63.5 172.5v328 q0 98 -62.5 151.5t-172.5 53.5v82q111 0 173 50t62 154q0 111 -60 173.5t-165 62.5q-98 0 -161.5 -62.5t-63.5 -173.5v-1126h-82z" />
<glyph unicode="&#xe0;" horiz-adv-x="823" d="M86 307q0 -70 24.5 -128t66.5 -100t97.5 -65.5t118.5 -23.5q76 0 139.5 32.5t104.5 86.5q14 -49 47 -79t98 -30v82q-31 0 -48 16.5t-24.5 46t-8.5 70.5t-1 92v410q0 72 -23.5 130t-64.5 100t-97 64.5t-122 22.5q-76 0 -146.5 -35.5t-107.5 -97.5l66 -39q72 90 188 90 q104 0 164.5 -61.5t60.5 -173.5v-410q0 -111 -60 -173t-165 -62q-98 0 -161.5 62.5t-63.5 172.5q0 92 63.5 148.5t161.5 56.5q41 0 78 -11.5t66 -31.5v90q-66 35 -144 35q-63 0 -118.5 -22.5t-97.5 -61.5t-66.5 -91t-24.5 -112zM307 1454h94l80 -246h-65z" />
<glyph unicode="&#xe1;" horiz-adv-x="823" d="M86 307q0 59 24.5 111.5t66.5 91.5t97.5 61.5t118.5 22.5q78 0 144 -35v-90q-29 20 -66 31.5t-78 11.5q-98 0 -161.5 -56.5t-63.5 -148.5q0 -111 63.5 -173t161.5 -62q104 0 164.5 62.5t60.5 172.5v410q0 113 -60 174t-165 61q-117 0 -188 -90l-66 39q37 61 107.5 97 t146.5 36q66 0 122 -22.5t97 -64.5t64.5 -100.5t23.5 -129.5v-410q0 -51 1 -92t8.5 -70.5t25 -46t47.5 -16.5v-82q-66 0 -98.5 29.5t-46.5 79.5q-41 -53 -104.5 -86t-139.5 -33q-63 0 -118.5 23.5t-97.5 65.5t-66.5 100.5t-24.5 127.5zM375 1208l80 246h90l-105 -246h-65z " />
<glyph unicode="&#xe2;" horiz-adv-x="823" d="M86 307q0 -70 24.5 -128t66.5 -100t97.5 -65.5t118.5 -23.5q76 0 139.5 32.5t104.5 86.5q14 -49 47 -79t98 -30v82q-31 0 -48 16.5t-24.5 46t-8.5 70.5t-1 92v410q0 72 -23.5 130t-64.5 100t-97 64.5t-122 22.5q-76 0 -146.5 -35.5t-107.5 -97.5l66 -39q72 90 188 90 q104 0 164.5 -61.5t60.5 -173.5v-410q0 -111 -60 -173t-165 -62q-98 0 -161.5 62.5t-63.5 172.5q0 92 63.5 148.5t161.5 56.5q41 0 78 -11.5t66 -31.5v90q-66 35 -144 35q-63 0 -118.5 -22.5t-97.5 -61.5t-66.5 -91t-24.5 -112zM244 1208l143 246h94l144 -246h-95l-96 207 l-96 -207h-94z" />
<glyph unicode="&#xe3;" horiz-adv-x="823" d="M86 307q0 59 24.5 111.5t66.5 91.5t97.5 61.5t118.5 22.5q78 0 144 -35v-90q-29 20 -66 31.5t-78 11.5q-98 0 -161.5 -56.5t-63.5 -148.5q0 -111 63.5 -173t161.5 -62q104 0 164.5 62.5t60.5 172.5v410q0 113 -60 174t-165 61q-117 0 -188 -90l-66 39q37 61 107.5 97 t146.5 36q66 0 122 -22.5t97 -64.5t64.5 -100.5t23.5 -129.5v-410q0 -51 1 -92t8.5 -70.5t25 -46t47.5 -16.5v-82q-66 0 -98.5 29.5t-46.5 79.5q-41 -53 -104.5 -86t-139.5 -33q-63 0 -118.5 23.5t-97.5 65.5t-66.5 100.5t-24.5 127.5zM123 1309q27 59 72 83.5t94 24.5 q39 0 70.5 -15.5t59 -34.5t55.5 -34.5t63 -15.5q29 0 53 19.5t39 54.5l73 -33q-27 -59 -69.5 -86t-95.5 -27q-37 0 -68 15.5t-59.5 35t-57 35t-63.5 15.5q-29 0 -53.5 -18.5t-38.5 -51.5z" />
<glyph unicode="&#xe4;" horiz-adv-x="823" d="M86 307q0 59 24.5 111.5t66.5 91.5t97.5 61.5t118.5 22.5q78 0 144 -35v-90q-29 20 -66 31.5t-78 11.5q-98 0 -161.5 -56.5t-63.5 -148.5q0 -111 63.5 -173t161.5 -62q104 0 164.5 62.5t60.5 172.5v410q0 113 -60 174t-165 61q-117 0 -188 -90l-66 39q37 61 107.5 97 t146.5 36q66 0 122 -22.5t97 -64.5t64.5 -100.5t23.5 -129.5v-410q0 -51 1 -92t8.5 -70.5t25 -46t47.5 -16.5v-82q-66 0 -98.5 29.5t-46.5 79.5q-41 -53 -104.5 -86t-139.5 -33q-63 0 -118.5 23.5t-97.5 65.5t-66.5 100.5t-24.5 127.5zM250 1260q0 23 14.5 37t36.5 14 q23 0 37 -14.5t14 -36.5q0 -23 -14 -37.5t-37 -14.5t-37 14.5t-14 37.5zM516 1260q0 23 14.5 37t36.5 14q23 0 37 -14.5t14 -36.5q0 -23 -14 -37.5t-37 -14.5t-37 14.5t-14 37.5z" />
<glyph unicode="&#xe5;" horiz-adv-x="823" d="M86 307q0 59 24.5 111.5t66.5 91.5t97.5 61.5t118.5 22.5q78 0 144 -35v-90q-29 20 -66 31.5t-78 11.5q-98 0 -161.5 -56.5t-63.5 -148.5q0 -111 63.5 -173t161.5 -62q104 0 164.5 62.5t60.5 172.5v410q0 113 -60 174t-165 61q-117 0 -188 -90l-66 39q37 61 107.5 97 t146.5 36q66 0 122 -22.5t97 -64.5t64.5 -100.5t23.5 -129.5v-410q0 -51 1 -92t8.5 -70.5t25 -46t47.5 -16.5v-82q-66 0 -98.5 29.5t-46.5 79.5q-41 -53 -104.5 -86t-139.5 -33q-63 0 -118.5 23.5t-97.5 65.5t-66.5 100.5t-24.5 127.5zM254 1321q0 72 51 123t123 51t123 -51 t51 -123t-51 -123t-123 -51t-123 51t-51 123zM315 1321q0 -47 33 -80t80 -33t80 33t33 80t-33 80t-80 33t-80 -33t-33 -80z" />
<glyph unicode="&#xe6;" horiz-adv-x="1318" d="M86 307q0 59 24.5 111.5t66.5 91.5t97.5 61.5t118.5 22.5q78 0 144 -35v-90q-29 20 -66 31.5t-78 11.5q-98 0 -161.5 -56.5t-63.5 -148.5q0 -111 63.5 -173t161.5 -62q100 0 160.5 58t64.5 165v422q0 113 -60 174t-165 61q-117 0 -188 -90l-66 39q37 61 107.5 97 t146.5 36q88 0 158 -40t108 -111q41 70 110 110.5t157 40.5q63 0 118.5 -23.5t97.5 -65.5t66.5 -100.5t24.5 -127.5q0 -59 -24.5 -111.5t-66.5 -91.5t-97.5 -61.5t-118.5 -22.5h-144v82h144q98 0 161.5 61.5t63.5 153.5q0 111 -63.5 168t-161.5 57q-104 0 -165 -57t-61 -168 v-432q4 -106 63.5 -164.5t162.5 -58.5q115 0 186 90l66 -43q-41 -59 -109 -94t-143 -35q-88 0 -158 39t-109 110q-41 -72 -110.5 -110.5t-155.5 -38.5q-63 0 -118.5 23.5t-97.5 65.5t-66.5 100.5t-24.5 127.5z" />
<glyph unicode="&#xe7;" horiz-adv-x="737" d="M92 307v410q0 72 23.5 130t64.5 100t97.5 64.5t121.5 22.5q74 0 141.5 -33.5t110.5 -99.5l-65 -39q-12 23 -33 40.5t-46.5 28.5t-54 16t-53.5 5q-104 0 -164.5 -61.5t-60.5 -173.5v-410q0 -111 60.5 -173t164.5 -62q53 0 104.5 21.5t80.5 68.5l65 -43q-41 -57 -107.5 -93 t-142.5 -36q-66 0 -122 23.5t-97 65.5t-64.5 100.5t-23.5 127.5zM297 -272l43 43q18 -18 43 -19q25 0 43 18.5t18 43.5q0 27 -18 44t-43 17v62q49 0 86 -36t37 -87q0 -49 -37 -86t-86 -37t-86 37z" />
<glyph unicode="&#xe8;" horiz-adv-x="792" d="M92 307q0 -72 23.5 -131t64.5 -100t97.5 -63.5t121.5 -22.5q76 0 143.5 34.5t108.5 94.5l-65 43q-72 -90 -187 -90q-104 0 -164.5 61.5t-60.5 173.5v420q0 111 60.5 168t164.5 57q98 0 162 -57t64 -168q0 -92 -63.5 -153.5t-162.5 -61.5h-143v-82h143q63 0 118.5 22.5 t97.5 61.5t67 91t25 112q0 70 -25 128t-67 100t-97 65.5t-119 23.5q-66 0 -122 -23.5t-97 -65.5t-64.5 -100.5t-23.5 -127.5v-410zM272 1454h95l79 -246h-65z" />
<glyph unicode="&#xe9;" horiz-adv-x="792" d="M92 307v410q0 70 23.5 128t64.5 100t97.5 65.5t121.5 23.5q63 0 118.5 -23.5t97.5 -65.5t67 -100.5t25 -127.5q0 -59 -25 -111.5t-67 -91.5t-97 -61.5t-119 -22.5h-143v82h143q98 0 162 61.5t64 153.5q0 111 -63.5 168t-162.5 57q-104 0 -164.5 -57t-60.5 -168v-420 q0 -113 60.5 -174t164.5 -61q115 0 187 90l65 -43q-41 -59 -108.5 -94t-143.5 -35q-66 0 -122 22.5t-97 63.5t-64.5 100.5t-23.5 130.5zM360 1208l80 246h90l-104 -246h-66z" />
<glyph unicode="&#xea;" horiz-adv-x="792" d="M92 307q0 -72 23.5 -131t64.5 -100t97.5 -63.5t121.5 -22.5q76 0 143.5 34.5t108.5 94.5l-65 43q-72 -90 -187 -90q-104 0 -164.5 61.5t-60.5 173.5v420q0 111 60.5 168t164.5 57q98 0 162 -57t64 -168q0 -92 -63.5 -153.5t-162.5 -61.5h-143v-82h143q63 0 118.5 22.5 t97.5 61.5t67 91t25 112q0 70 -25 128t-67 100t-97 65.5t-119 23.5q-66 0 -122 -23.5t-97 -65.5t-64.5 -100.5t-23.5 -127.5v-410zM205 1208l143 246h94l144 -246h-94l-97 207l-96 -207h-94z" />
<glyph unicode="&#xeb;" horiz-adv-x="792" d="M92 307v410q0 70 23.5 128t64.5 100t97.5 65.5t121.5 23.5q63 0 118.5 -23.5t97.5 -65.5t67 -100.5t25 -127.5q0 -59 -25 -111.5t-67 -91.5t-97 -61.5t-119 -22.5h-143v82h143q98 0 162 61.5t64 153.5q0 111 -63.5 168t-162.5 57q-104 0 -164.5 -57t-60.5 -168v-420 q0 -113 60.5 -174t164.5 -61q115 0 187 90l65 -43q-41 -59 -108.5 -94t-143.5 -35q-66 0 -122 22.5t-97 63.5t-64.5 100.5t-23.5 130.5zM215 1260q0 23 14.5 37t36.5 14q23 0 37 -14.5t14 -36.5q0 -23 -14 -37.5t-37 -14.5t-37 14.5t-14 37.5zM481 1260q0 23 14.5 37 t36.5 14q23 0 37.5 -14.5t14.5 -36.5q0 -23 -14.5 -37.5t-37.5 -14.5t-37 14.5t-14 37.5z" />
<glyph unicode="&#xec;" horiz-adv-x="327" d="M23 1454h94l80 -246h-66zM123 0v1024h82v-1024h-82z" />
<glyph unicode="&#xed;" horiz-adv-x="327" d="M123 0v1024h82v-1024h-82zM137 1208l80 246h90l-104 -246h-66z" />
<glyph unicode="&#xee;" horiz-adv-x="327" d="M-27 1208l144 246h94l143 -246h-94l-96 207l-96 -207h-95zM123 0v1024h82v-1024h-82z" />
<glyph unicode="&#xef;" horiz-adv-x="327" d="M-20 1260q0 23 14 37t37 14t37 -14.5t14 -36.5q0 -23 -14.5 -37.5t-36.5 -14.5q-23 0 -37 14.5t-14 37.5zM123 0v1024h82v-1024h-82zM246 1260q0 23 14 37t37 14t37 -14.5t14 -36.5q0 -23 -14.5 -37.5t-36.5 -14.5q-23 0 -37 14.5t-14 37.5z" />
<glyph unicode="&#xf0;" horiz-adv-x="798" d="M92 307v410q0 72 23.5 130t64.5 100t97.5 64.5t121.5 22.5v-82q-104 0 -164.5 -61.5t-60.5 -173.5v-410q0 -111 60.5 -173t164.5 -62q98 0 162 62.5t64 172.5v189q0 115 -10.5 221t-33 200.5t-59.5 172t-90 137.5l-178 -92l-29 55l160 82q-47 37 -103.5 61.5t-123.5 32.5 l12 78q94 -10 167 -43t132 -86l158 82l28 -56l-143 -73q106 -129 150.5 -331t44.5 -441v-189q0 -70 -25 -128t-67 -100t-97 -65.5t-119 -23.5q-66 0 -122 23.5t-97 65.5t-64.5 100.5t-23.5 127.5z" />
<glyph unicode="&#xf1;" horiz-adv-x="849" d="M123 0v1024h82v-109q41 45 100.5 82t124.5 37q66 0 122 -23.5t97 -65.5t64.5 -100.5t23.5 -127.5v-717h-82v717q0 111 -60 173t-165 62q-98 0 -161.5 -62.5t-63.5 -172.5v-717h-82zM135 1309q27 59 72 83.5t94 24.5q39 0 70.5 -15.5t59.5 -34.5t55.5 -34.5t62.5 -15.5 q29 0 53.5 19.5t38.5 54.5l74 -33q-27 -59 -70 -86t-96 -27q-37 0 -67.5 15.5t-59.5 35t-57.5 35t-63.5 15.5q-29 0 -53.5 -18.5t-38.5 -51.5z" />
<glyph unicode="&#xf2;" horiz-adv-x="798" d="M92 307q0 -70 23.5 -128t64.5 -100t97 -65.5t122 -23.5q63 0 118.5 23.5t97.5 65.5t67 100.5t25 127.5v410q0 72 -25 130t-67 100t-97 64.5t-119 22.5q-66 0 -122 -22.5t-97 -64.5t-64.5 -100.5t-23.5 -129.5v-410zM174 307v410q0 113 60.5 174t164.5 61q98 0 162 -61.5 t64 -173.5v-410q0 -111 -63.5 -173t-162.5 -62q-104 0 -164.5 62.5t-60.5 172.5zM272 1454h95l79 -246h-65z" />
<glyph unicode="&#xf3;" horiz-adv-x="798" d="M92 307v410q0 72 23.5 130t64.5 100t97.5 64.5t121.5 22.5q63 0 118.5 -22.5t97.5 -64.5t67 -100.5t25 -129.5v-410q0 -70 -25 -128t-67 -100t-97.5 -65.5t-118.5 -23.5q-66 0 -122 23.5t-97 65.5t-64.5 100.5t-23.5 127.5zM174 307q0 -111 60.5 -173t164.5 -62 q98 0 162 62.5t64 172.5v410q0 113 -63.5 174t-162.5 61q-104 0 -164.5 -61.5t-60.5 -173.5v-410zM369 1208l80 246h90l-105 -246h-65z" />
<glyph unicode="&#xf4;" horiz-adv-x="798" d="M92 307q0 -70 23.5 -128t64.5 -100t97 -65.5t122 -23.5q63 0 118.5 23.5t97.5 65.5t67 100.5t25 127.5v410q0 72 -25 130t-67 100t-97 64.5t-119 22.5q-66 0 -122 -22.5t-97 -64.5t-64.5 -100.5t-23.5 -129.5v-410zM174 307v410q0 113 60.5 174t164.5 61q98 0 162 -61.5 t64 -173.5v-410q0 -111 -63.5 -173t-162.5 -62q-104 0 -164.5 62.5t-60.5 172.5zM209 1208l143 246h94l144 -246h-94l-97 207l-96 -207h-94z" />
<glyph unicode="&#xf5;" horiz-adv-x="798" d="M92 307v410q0 72 23.5 130t64.5 100t97.5 64.5t121.5 22.5q63 0 118.5 -22.5t97.5 -64.5t67 -100.5t25 -129.5v-410q0 -70 -25 -128t-67 -100t-97.5 -65.5t-118.5 -23.5q-66 0 -122 23.5t-97 65.5t-64.5 100.5t-23.5 127.5zM111 1309q27 59 71.5 83.5t93.5 24.5 q39 0 71 -15.5t59.5 -34.5t55 -34.5t62.5 -15.5q29 0 53.5 19.5t38.5 54.5l74 -33q-27 -59 -69.5 -86t-96.5 -27q-37 0 -67.5 15.5t-59 35t-57.5 35t-64 15.5q-29 0 -53 -18.5t-39 -51.5zM174 307q0 -111 60.5 -173t164.5 -62q98 0 162 62.5t64 172.5v410q0 113 -63.5 174 t-162.5 61q-104 0 -164.5 -61.5t-60.5 -173.5v-410z" />
<glyph unicode="&#xf6;" horiz-adv-x="798" d="M92 307v410q0 72 23.5 130t64.5 100t97.5 64.5t121.5 22.5q63 0 118.5 -22.5t97.5 -64.5t67 -100.5t25 -129.5v-410q0 -70 -25 -128t-67 -100t-97.5 -65.5t-118.5 -23.5q-66 0 -122 23.5t-97 65.5t-64.5 100.5t-23.5 127.5zM174 307q0 -111 60.5 -173t164.5 -62 q98 0 162 62.5t64 172.5v410q0 113 -63.5 174t-162.5 61q-104 0 -164.5 -61.5t-60.5 -173.5v-410zM215 1260q0 23 14.5 37t36.5 14q23 0 37 -14.5t14 -36.5q0 -23 -14 -37.5t-37 -14.5t-37 14.5t-14 37.5zM481 1260q0 23 14.5 37t36.5 14q23 0 37.5 -14.5t14.5 -36.5 q0 -23 -14.5 -37.5t-37.5 -14.5t-37 14.5t-14 37.5z" />
<glyph unicode="&#xf7;" horiz-adv-x="1024" d="M184 614v82h656v-82h-656zM440 420q0 29 21.5 50.5t50.5 21.5t50.5 -21.5t21.5 -50.5t-21.5 -50.5t-50.5 -21.5t-50.5 21.5t-21.5 50.5zM440 891q0 29 21.5 50.5t50.5 21.5t50.5 -21.5t21.5 -50.5t-21.5 -50.5t-50.5 -21.5t-50.5 21.5t-21.5 50.5z" />
<glyph unicode="&#xf8;" horiz-adv-x="798" d="M92 307v410q0 72 23.5 130t64.5 100t97.5 64.5t121.5 22.5q63 0 118.5 -22.5t97.5 -64.5t67 -100.5t25 -129.5v-410q0 -70 -25 -128t-67 -100t-97.5 -65.5t-118.5 -23.5q-66 0 -122 23.5t-97 65.5t-64.5 100.5t-23.5 127.5zM174 307q0 -131 84 -192l201 829 q-14 4 -28.5 6t-31.5 2q-104 0 -164.5 -61.5t-60.5 -173.5v-410zM334 80q27 -8 65 -8q98 0 162 62.5t64 172.5v410q0 68 -25 118t-68 78z" />
<glyph unicode="&#xf9;" horiz-adv-x="860" d="M123 307q0 -70 23.5 -128t64.5 -100t97.5 -65.5t121.5 -23.5q74 0 137.5 32.5t106.5 88.5q14 -51 47 -81t98 -30v82q-31 0 -47 15.5t-24.5 43t-9.5 66.5t-1 88v729h-82v-727q-4 -106 -68.5 -165.5t-156.5 -59.5q-104 0 -164.5 62.5t-60.5 172.5v717h-82v-717zM311 1454 h95l79 -246h-65z" />
<glyph unicode="&#xfa;" horiz-adv-x="860" d="M123 307v717h82v-717q0 -111 60.5 -173t164.5 -62q92 0 156.5 59t68.5 166v727h82v-729q0 -49 1 -88t9.5 -66.5t24.5 -43t47 -15.5v-82q-66 0 -98.5 29.5t-46.5 81.5q-43 -55 -106.5 -88t-137.5 -33q-66 0 -122 23.5t-97 65.5t-64.5 100.5t-23.5 127.5zM403 1208l80 246 h90l-104 -246h-66z" />
<glyph unicode="&#xfb;" horiz-adv-x="860" d="M123 307q0 -70 23.5 -128t64.5 -100t97.5 -65.5t121.5 -23.5q74 0 137.5 32.5t106.5 88.5q14 -51 47 -81t98 -30v82q-31 0 -47 15.5t-24.5 43t-9.5 66.5t-1 88v729h-82v-727q-4 -106 -68.5 -165.5t-156.5 -59.5q-104 0 -164.5 62.5t-60.5 172.5v717h-82v-717zM240 1208 l143 246h94l144 -246h-95l-96 207l-96 -207h-94z" />
<glyph unicode="&#xfc;" horiz-adv-x="860" d="M123 307v717h82v-717q0 -111 60.5 -173t164.5 -62q92 0 156.5 59t68.5 166v727h82v-729q0 -49 1 -88t9.5 -66.5t24.5 -43t47 -15.5v-82q-66 0 -98.5 29.5t-46.5 81.5q-43 -55 -106.5 -88t-137.5 -33q-66 0 -122 23.5t-97 65.5t-64.5 100.5t-23.5 127.5zM242 1260 q0 23 14 37t37 14t37 -14.5t14 -36.5q0 -23 -14.5 -37.5t-36.5 -14.5q-23 0 -37 14.5t-14 37.5zM508 1260q0 23 14.5 37t36.5 14q23 0 37 -14.5t14 -36.5q0 -23 -14 -37.5t-37 -14.5t-37 14.5t-14 37.5z" />
<glyph unicode="&#xfd;" horiz-adv-x="706" d="M41 -463q74 4 134.5 50t78.5 120l55 225l-268 1092h86l225 -920l228 920h86l-332 -1333q-12 -53 -42 -95t-69 -73t-86 -48.5t-96 -19.5v82zM338 1208l80 246h90l-105 -246h-65z" />
<glyph unicode="&#xfe;" horiz-adv-x="829" d="M123 -532v1966h82v-519q41 45 100.5 82t124.5 37q66 0 122 -23.5t97 -65.5t64.5 -100.5t23.5 -127.5v-400q0 -72 -24.5 -131t-66.5 -100t-97 -63.5t-119 -22.5q-78 0 -143 35v90q29 -20 65.5 -31.5t77.5 -11.5q98 0 161.5 61.5t63.5 173.5v400q0 111 -60 173t-165 62 q-98 0 -161.5 -62.5t-63.5 -172.5v-1249h-82z" />
<glyph unicode="&#xff;" horiz-adv-x="706" d="M41 -463q74 4 134.5 50t78.5 120l55 225l-268 1092h86l225 -920l228 920h86l-332 -1333q-12 -53 -42 -95t-69 -73t-86 -48.5t-96 -19.5v82zM170 1260q0 23 14.5 37t36.5 14q23 0 37 -14.5t14 -36.5q0 -23 -14 -37.5t-37 -14.5t-37 14.5t-14 37.5zM436 1260q0 23 14.5 37 t36.5 14q23 0 37.5 -14.5t14.5 -36.5q0 -23 -14.5 -37.5t-37.5 -14.5t-37 14.5t-14 37.5z" />
<glyph unicode="&#x152;" horiz-adv-x="1669" d="M133 420v594q0 92 33 171t90 136t134 90t163 33q45 0 92 -10h942v-82h-772q72 -59 115 -145.5t43 -192.5v-174h409v-82h-409v-338q0 -106 -43 -193.5t-115 -144.5h772v-82h-942q-47 -10 -92 -10q-86 0 -163 32.5t-134 90t-90 136.5t-33 171zM215 420q0 -76 26.5 -140.5 t72.5 -110.5t107.5 -71.5t131.5 -25.5t131 25.5t107.5 71.5t73 110.5t26.5 140.5v594q0 76 -26.5 140.5t-73 110.5t-107.5 71.5t-131 25.5t-131.5 -25.5t-107.5 -71.5t-72.5 -110.5t-26.5 -140.5v-594z" />
<glyph unicode="&#x153;" horiz-adv-x="1325" d="M92 307v410q0 72 23.5 130t64.5 100t97.5 64.5t121.5 22.5q86 0 156 -41t111 -112q39 72 108.5 112.5t157.5 40.5q63 0 118.5 -23.5t97.5 -65.5t66.5 -100.5t24.5 -127.5q0 -59 -24.5 -111.5t-66.5 -91.5t-97.5 -61.5t-118.5 -22.5h-144v82h144q98 0 161.5 56.5 t63.5 148.5q0 111 -63.5 173t-161.5 62q-104 0 -164.5 -57t-60.5 -168v-420q0 -113 60 -174t165 -61q115 0 186 90l66 -43q-41 -59 -108.5 -94t-143.5 -35q-88 0 -157.5 40t-110.5 111q-41 -72 -111 -111.5t-154 -39.5q-66 0 -122 23.5t-97 65.5t-64.5 100.5t-23.5 127.5z M174 307q0 -111 60.5 -173t164.5 -62q98 0 162 62.5t64 172.5v420q-4 109 -66.5 167t-159.5 58q-104 0 -164.5 -61.5t-60.5 -173.5v-410z" />
<glyph unicode="&#x178;" horiz-adv-x="839" d="M51 1434h94l277 -615l276 615h90l-325 -729v-705h-82v705zM236 1669q0 23 14 37t37 14t37 -14t14 -37t-14.5 -37t-36.5 -14q-23 0 -37 14t-14 37zM502 1669q0 23 14 37t37 14t37 -14t14 -37t-14.5 -37t-36.5 -14q-23 0 -37 14t-14 37z" />
<glyph unicode="&#x2c6;" horiz-adv-x="749" d="M184 1208l144 246h94l143 -246h-94l-96 207l-96 -207h-95z" />
<glyph unicode="&#x2dc;" horiz-adv-x="825" d="M123 1309q27 59 72 83.5t94 24.5q39 0 70.5 -15.5t59 -34.5t55.5 -34.5t63 -15.5q29 0 53 19.5t39 54.5l73 -33q-27 -59 -69.5 -86t-95.5 -27q-37 0 -68 15.5t-59.5 35t-57 35t-63.5 15.5q-29 0 -53.5 -18.5t-38.5 -51.5z" />
<glyph unicode="&#x2000;" horiz-adv-x="937" />
<glyph unicode="&#x2001;" horiz-adv-x="1874" />
<glyph unicode="&#x2002;" horiz-adv-x="937" />
<glyph unicode="&#x2003;" horiz-adv-x="1874" />
<glyph unicode="&#x2004;" horiz-adv-x="624" />
<glyph unicode="&#x2005;" horiz-adv-x="468" />
<glyph unicode="&#x2006;" horiz-adv-x="312" />
<glyph unicode="&#x2007;" horiz-adv-x="312" />
<glyph unicode="&#x2008;" horiz-adv-x="234" />
<glyph unicode="&#x2009;" horiz-adv-x="374" />
<glyph unicode="&#x200a;" horiz-adv-x="104" />
<glyph unicode="&#x2010;" horiz-adv-x="798" d="M143 532v82h512v-82h-512z" />
<glyph unicode="&#x2011;" horiz-adv-x="798" d="M143 532v82h512v-82h-512z" />
<glyph unicode="&#x2012;" horiz-adv-x="798" d="M143 532v82h512v-82h-512z" />
<glyph unicode="&#x2013;" horiz-adv-x="1024" d="M123 532v82h778v-82h-778z" />
<glyph unicode="&#x2014;" horiz-adv-x="1310" d="M143 532v82h1024v-82h-1024z" />
<glyph unicode="&#x2018;" horiz-adv-x="348" d="M104 1362q0 35 5.5 60.5t17.5 46t31.5 38t46.5 37.5h41q-43 -47 -40.5 -76.5t25.5 -60.5q12 -16 13.5 -36.5t-6 -38t-23.5 -30t-39 -12.5q-29 0 -50.5 21.5t-21.5 50.5z" />
<glyph unicode="&#x2019;" horiz-adv-x="348" d="M102 1311q43 47 40.5 76.5t-25.5 60.5q-12 16 -14.5 36.5t6 38t25 30t38.5 12.5q29 0 50.5 -21.5t21.5 -50.5q2 -70 -23.5 -106.5t-77.5 -75.5h-41z" />
<glyph unicode="&#x201a;" horiz-adv-x="348" d="M102 -111q43 47 40.5 77t-25.5 61q-12 16 -14.5 36.5t6 38t25 29.5t38.5 12q29 0 50.5 -21.5t21.5 -49.5q2 -70 -23.5 -107t-77.5 -76h-41z" />
<glyph unicode="&#x201c;" horiz-adv-x="573" d="M104 1362q0 35 5.5 60.5t17.5 46t31.5 38t46.5 37.5h41q-43 -47 -40.5 -76.5t25.5 -60.5q12 -16 13.5 -36.5t-6 -38t-23.5 -30t-39 -12.5q-29 0 -50.5 21.5t-21.5 50.5zM330 1362q0 35 5 60.5t17.5 46t31.5 38t46 37.5h41q-43 -47 -40 -76.5t26 -60.5q12 -16 13 -36.5 t-6 -38t-23.5 -30t-39.5 -12.5q-29 0 -50 21.5t-21 50.5z" />
<glyph unicode="&#x201d;" horiz-adv-x="573" d="M102 1311q43 47 40.5 76.5t-25.5 60.5q-12 16 -14.5 36.5t6 38t25 30t38.5 12.5q29 0 50.5 -21.5t21.5 -50.5q2 -70 -23.5 -106.5t-77.5 -75.5h-41zM328 1311q43 47 40 76.5t-26 60.5q-12 16 -14 36.5t6 38t24.5 30t38.5 12.5q29 0 50.5 -21.5t21.5 -50.5 q2 -70 -23.5 -106.5t-76.5 -75.5h-41z" />
<glyph unicode="&#x201e;" horiz-adv-x="573" d="M102 -111q43 47 40.5 77t-25.5 61q-12 16 -14.5 36.5t6 38t25 29.5t38.5 12q29 0 50.5 -21.5t21.5 -49.5q2 -70 -23.5 -107t-77.5 -76h-41zM328 63.5q-2 20.5 6 38t24.5 29.5t38.5 12q29 0 50.5 -21.5t21.5 -49.5q2 -70 -23.5 -107t-76.5 -76h-41q43 47 40 77t-26 61 q-12 16 -14 36.5z" />
<glyph unicode="&#x2022;" horiz-adv-x="614" d="M102 594q0 86 59.5 145.5t145.5 59.5t145.5 -59.5t59.5 -145.5t-59.5 -145.5t-145.5 -59.5t-145.5 59.5t-59.5 145.5z" />
<glyph unicode="&#x2026;" horiz-adv-x="901" d="M92 72q0 29 21.5 50t50.5 21t50.5 -21.5t21.5 -49.5q0 -29 -21.5 -50.5t-50.5 -21.5t-50.5 21.5t-21.5 50.5zM379 72q0 29 21.5 50t50.5 21t50 -21.5t21 -49.5q0 -29 -21.5 -50.5t-49.5 -21.5q-29 0 -50.5 21.5t-21.5 50.5zM666 72q0 29 21.5 50t49.5 21q29 0 50.5 -21.5 t21.5 -49.5q0 -29 -21.5 -50.5t-50.5 -21.5t-50 21.5t-21 50.5z" />
<glyph unicode="&#x202f;" horiz-adv-x="374" />
<glyph unicode="&#x2039;" horiz-adv-x="815" d="M143 528v90l529 238v-88l-430 -195q109 -47 215 -97t215 -99v-86z" />
<glyph unicode="&#x203a;" horiz-adv-x="815" d="M143 291v86q109 49 215.5 99t214.5 97l-430 195v88l529 -238v-90z" />
<glyph unicode="&#x205f;" horiz-adv-x="468" />
<glyph unicode="&#x20ac;" horiz-adv-x="976" d="M133 410v614q0 96 33 173t90 134.5t134 90t163 32.5t163 -32.5t117.5 -74.5t61.5 -71l-2 2l-68 -45q-16 20 -48 53t-93 59.5t-131 26.5t-131.5 -26.5t-107.5 -72.5t-72.5 -107.5t-26.5 -141.5v-135h348v-82h-348v-102h348v-82h-348v-213q0 -80 26.5 -141.5t72.5 -107.5 t107.5 -73t131.5 -27t131 27t93 58.5t48 54.5l70 -45q-20 -29 -61 -70t-118 -73.5t-163 -32.5t-163 32.5t-134 90t-90 134t-33 173.5z" />
<glyph unicode="&#x2122;" horiz-adv-x="1556" d="M102 1352v82h506v-82h-213v-860h-82v860h-211zM743 492v942h88l269 -453l266 453h88v-942h-82v790l-242 -408h-61l-244 412v-794h-82z" />
<glyph unicode="&#x25fc;" horiz-adv-x="1024" d="M0 0v1024h1024v-1024h-1024z" />
</font>
</defs>
</svg>
